  0
SECTION
  2
HEADER
  9
$ACADVER
  1
AC1018
  9
$ACADMAINTVER
 70
   104
  9
$DWGCODEPAGE
  3
ANSI_1250
  9
$LASTSAVEDBY
  1
bonzo
  9
$INSBASE
 10
0.0
 20
0.0
 30
0.0
  9
$EXTMIN
 10
6.517824626678707
 20
3.853579959832441
 30
0.0
  9
$EXTMAX
 10
13.61498451223652
 20
10.56132163505452
 30
0.0
  9
$LIMMIN
 10
0.0
 20
0.0
  9
$LIMMAX
 10
12.0
 20
9.0
  9
$ORTHOMODE
 70
     1
  9
$REGENMODE
 70
     1
  9
$FILLMODE
 70
     1
  9
$QTEXTMODE
 70
     0
  9
$MIRRTEXT
 70
     1
  9
$LTSCALE
 40
1.0
  9
$ATTMODE
 70
     1
  9
$TEXTSIZE
 40
0.2
  9
$TRACEWID
 40
0.05
  9
$TEXTSTYLE
  7
Standard
  9
$CLAYER
  8
WYMIAR
  9
$CELTYPE
  6
ByLayer
  9
$CECOLOR
 62
   256
  9
$CELTSCALE
 40
1.0
  9
$DISPSILH
 70
     0
  9
$DIMSCALE
 40
0.02
  9
$DIMASZ
 40
3.0
  9
$DIMEXO
 40
20.0
  9
$DIMDLI
 40
0.0
  9
$DIMRND
 40
0.1
  9
$DIMDLE
 40
0.0
  9
$DIMEXE
 40
5.0
  9
$DIMTP
 40
0.0
  9
$DIMTM
 40
0.0
  9
$DIMTXT
 40
9.0
  9
$DIMCEN
 40
12.0
  9
$DIMTSZ
 40
0.0
  9
$DIMTOL
 70
     0
  9
$DIMLIM
 70
     0
  9
$DIMTIH
 70
     0
  9
$DIMTOH
 70
     0
  9
$DIMSE1
 70
     1
  9
$DIMSE2
 70
     1
  9
$DIMTAD
 70
     1
  9
$DIMZIN
 70
     1
  9
$DIMBLK
  1

  9
$DIMASO
 70
     1
  9
$DIMSHO
 70
     1
  9
$DIMPOST
  1

  9
$DIMAPOST
  1

  9
$DIMALT
 70
     0
  9
$DIMALTD
 70
     4
  9
$DIMALTF
 40
1.0
  9
$DIMLFAC
 40
1.0
  9
$DIMTOFL
 70
     1
  9
$DIMTVP
 40
0.0
  9
$DIMTIX
 70
     1
  9
$DIMSOXD
 70
     0
  9
$DIMSAH
 70
     1
  9
$DIMBLK1
  1
MAR-STRZ
  9
$DIMBLK2
  1
MAR-STRZ
  9
$DIMSTYLE
  2
AR SKALA 1-50
  9
$DIMCLRD
 70
   256
  9
$DIMCLRE
 70
   256
  9
$DIMCLRT
 70
   256
  9
$DIMTFAC
 40
0.01
  9
$DIMGAP
 40
6.0
  9
$DIMJUST
 70
     0
  9
$DIMSD1
 70
     0
  9
$DIMSD2
 70
     0
  9
$DIMTOLJ
 70
     1
  9
$DIMTZIN
 70
     0
  9
$DIMALTZ
 70
     0
  9
$DIMALTTZ
 70
     0
  9
$DIMUPT
 70
     0
  9
$DIMDEC
 70
     2
  9
$DIMTDEC
 70
     2
  9
$DIMALTU
 70
     2
  9
$DIMALTTD
 70
     4
  9
$DIMTXSTY
  7
AR 01 SWIS
  9
$DIMAUNIT
 70
     0
  9
$DIMADEC
 70
     1
  9
$DIMALTRND
 40
0.0
  9
$DIMAZIN
 70
     0
  9
$DIMDSEP
 70
    46
  9
$DIMATFIT
 70
     3
  9
$DIMFRAC
 70
     0
  9
$DIMLDRBLK
  1
MAR-STRZ
  9
$DIMLUNIT
 70
     2
  9
$DIMLWD
 70
    -2
  9
$DIMLWE
 70
    -2
  9
$DIMTMOVE
 70
     2
  9
$LUNITS
 70
     2
  9
$LUPREC
 70
     4
  9
$SKETCHINC
 40
0.1
  9
$FILLETRAD
 40
0.0
  9
$AUNITS
 70
     0
  9
$AUPREC
 70
     0
  9
$MENU
  1
.
  9
$ELEVATION
 40
0.0
  9
$PELEVATION
 40
0.0
  9
$THICKNESS
 40
0.0
  9
$LIMCHECK
 70
     0
  9
$CHAMFERA
 40
0.5
  9
$CHAMFERB
 40
0.5
  9
$CHAMFERC
 40
1.0
  9
$CHAMFERD
 40
0.0
  9
$SKPOLY
 70
     0
  9
$TDCREATE
 40
2455956.499359827
  9
$TDUCREATE
 40
2455956.416026493
  9
$TDUPDATE
 40
2459311.312911840
  9
$TDUUPDATE
 40
2459311.229578507
  9
$TDINDWG
 40
0.1661578588
  9
$TDUSRTIMER
 40
0.1661578588
  9
$USRTIMER
 70
     1
  9
$ANGBASE
 50
0.0
  9
$ANGDIR
 70
     0
  9
$PDMODE
 70
     0
  9
$PDSIZE
 40
0.0
  9
$PLINEWID
 40
0.0
  9
$SPLFRAME
 70
     0
  9
$SPLINETYPE
 70
     6
  9
$SPLINESEGS
 70
     8
  9
$HANDSEED
  5
384B
  9
$SURFTAB1
 70
     6
  9
$SURFTAB2
 70
     6
  9
$SURFTYPE
 70
     6
  9
$SURFU
 70
     6
  9
$SURFV
 70
     6
  9
$UCSBASE
  2

  9
$UCSNAME
  2

  9
$UCSORG
 10
0.0
 20
0.0
 30
0.0
  9
$UCSXDIR
 10
1.0
 20
0.0
 30
0.0
  9
$UCSYDIR
 10
0.0
 20
1.0
 30
0.0
  9
$UCSORTHOREF
  2

  9
$UCSORTHOVIEW
 70
     0
  9
$UCSORGTOP
 10
0.0
 20
0.0
 30
0.0
  9
$UCSORGBOTTOM
 10
0.0
 20
0.0
 30
0.0
  9
$UCSORGLEFT
 10
0.0
 20
0.0
 30
0.0
  9
$UCSORGRIGHT
 10
0.0
 20
0.0
 30
0.0
  9
$UCSORGFRONT
 10
0.0
 20
0.0
 30
0.0
  9
$UCSORGBACK
 10
0.0
 20
0.0
 30
0.0
  9
$PUCSBASE
  2

  9
$PUCSNAME
  2

  9
$PUCSORG
 10
0.0
 20
0.0
 30
0.0
  9
$PUCSXDIR
 10
1.0
 20
0.0
 30
0.0
  9
$PUCSYDIR
 10
0.0
 20
1.0
 30
0.0
  9
$PUCSORTHOREF
  2

  9
$PUCSORTHOVIEW
 70
     0
  9
$PUCSORGTOP
 10
0.0
 20
0.0
 30
0.0
  9
$PUCSORGBOTTOM
 10
0.0
 20
0.0
 30
0.0
  9
$PUCSORGLEFT
 10
0.0
 20
0.0
 30
0.0
  9
$PUCSORGRIGHT
 10
0.0
 20
0.0
 30
0.0
  9
$PUCSORGFRONT
 10
0.0
 20
0.0
 30
0.0
  9
$PUCSORGBACK
 10
0.0
 20
0.0
 30
0.0
  9
$USERI1
 70
     0
  9
$USERI2
 70
     0
  9
$USERI3
 70
     0
  9
$USERI4
 70
     0
  9
$USERI5
 70
     0
  9
$USERR1
 40
0.0
  9
$USERR2
 40
0.0
  9
$USERR3
 40
0.0
  9
$USERR4
 40
0.0
  9
$USERR5
 40
0.0
  9
$WORLDVIEW
 70
     1
  9
$SHADEDGE
 70
     3
  9
$SHADEDIF
 70
    70
  9
$TILEMODE
 70
     1
  9
$MAXACTVP
 70
    64
  9
$PINSBASE
 10
0.0
 20
0.0
 30
0.0
  9
$PLIMCHECK
 70
     0
  9
$PEXTMIN
 10
6.561544945354853
 20
3.282189374834842
 30
0.0
  9
$PEXTMAX
 10
296.6096419909582
 20
206.4421558651099
 30
0.0
  9
$PLIMMIN
 10
3.386557152386103
 20
0.1071894225185588
  9
$PLIMMAX
 10
300.4395661855892
 20
209.9958460387295
  9
$UNITMODE
 70
     0
  9
$VISRETAIN
 70
     1
  9
$PLINEGEN
 70
     0
  9
$PSLTSCALE
 70
     0
  9
$TREEDEPTH
 70
  3020
  9
$CMLSTYLE
  2
Standard
  9
$CMLJUST
 70
     0
  9
$CMLSCALE
 40
1.0
  9
$PROXYGRAPHICS
 70
     1
  9
$MEASUREMENT
 70
     0
  9
$CELWEIGHT
370
    -1
  9
$ENDCAPS
280
     0
  9
$JOINSTYLE
280
     0
  9
$LWDISPLAY
290
     0
  9
$INSUNITS
 70
     1
  9
$HYPERLINKBASE
  1

  9
$STYLESHEET
  1

  9
$XEDIT
290
     1
  9
$CEPSNTYPE
380
     0
  9
$PSTYLEMODE
290
     1
  9
$FINGERPRINTGUID
  2
{1B330B5B-CE04-4EC8-B886-8C8BFC3A02BF}
  9
$VERSIONGUID
  2
{52485F3F-DE13-4E7E-96F4-176C7E5D558B}
  9
$EXTNAMES
290
     1
  9
$PSVPSCALE
 40
0.0
  9
$OLESTARTUP
290
     0
  9
$SORTENTS
280
   127
  9
$INDEXCTL
280
     0
  9
$HIDETEXT
280
     1
  9
$XCLIPFRAME
290
     0
  9
$HALOGAP
280
     0
  9
$OBSCOLOR
 70
   257
  9
$OBSLTYPE
280
     0
  9
$INTERSECTIONDISPLAY
280
     0
  9
$INTERSECTIONCOLOR
 70
   257
  9
$DIMASSOC
280
     2
  9
$PROJECTNAME
  1

  0
ENDSEC
  0
SECTION
  2
CLASSES
  0
CLASS
  1
ACDBDICTIONARYWDFLT
  2
AcDbDictionaryWithDefault
  3
ObjectDBX Classes
 90
        0
 91
        1
280
     0
281
     0
  0
CLASS
  1
VISUALSTYLE
  2
AcDbVisualStyle
  3
ObjectDBX Classes
 90
     4095
 91
       16
280
     0
281
     0
  0
CLASS
  1
MATERIAL
  2
AcDbMaterial
  3
ObjectDBX Classes
 90
     1153
 91
        3
280
     0
281
     0
  0
CLASS
  1
DICTIONARYVAR
  2
AcDbDictionaryVar
  3
ObjectDBX Classes
 90
        0
 91
        9
280
     0
281
     0
  0
CLASS
  1
TABLESTYLE
  2
AcDbTableStyle
  3
ObjectDBX Classes
 90
     4095
 91
        1
280
     0
281
     0
  0
CLASS
  1
SORTENTSTABLE
  2
AcDbSortentsTable
  3
ObjectDBX Classes
 90
        0
 91
        1
280
     0
281
     0
  0
CLASS
  1
DIMASSOC
  2
AcDbDimAssoc
  3
"AcDbDimAssoc|Product Desc:     AcDim ARX App For Dimension|Company:          Autodesk, Inc.|WEB Address:      www.autodesk.com"
 90
        0
 91
        2
280
     0
281
     0
  0
CLASS
  1
SCALE
  2
AcDbScale
  3
ObjectDBX Classes
 90
     1153
 91
       33
280
     0
281
     0
  0
CLASS
  1
MLEADERSTYLE
  2
AcDbMLeaderStyle
  3
ACDB_MLEADERSTYLE_CLASS
 90
     4095
 91
        1
280
     0
281
     0
  0
CLASS
  1
CELLSTYLEMAP
  2
AcDbCellStyleMap
  3
ObjectDBX Classes
 90
     1152
 91
        2
280
     0
281
     0
  0
ENDSEC
  0
SECTION
  2
TABLES
  0
TABLE
  2
VPORT
  5
8
102
{ACAD_XDICTIONARY
360
84C
102
}
330
0
100
AcDbSymbolTable
 70
     1
  0
VPORT
  5
29
330
8
100
AcDbSymbolTableRecord
100
AcDbViewportTableRecord
  2
*Active
 70
     0
 10
0.0
 20
0.0
 11
1.0
 21
1.0
 12
10.52411958032728
 22
7.131622221925129
 13
0.0
 23
0.0
 14
0.5
 24
0.5
 15
0.5
 25
0.5
 16
0.0
 26
0.0
 36
1.0
 17
0.0
 27
0.0
 37
-1000.0
 40
8.70463381624128
 41
2.060556464811783
 42
50.0
 43
4.148984367261674
 44
9.217858496371269
 50
0.0
 51
0.0
 71
     0
 72
   100
 73
     1
 74
     3
 75
     0
 76
     0
 77
     0
 78
     0
281
     0
 65
     1
110
0.0
120
0.0
130
0.0
111
1.0
121
0.0
131
0.0
112
0.0
122
1.0
132
0.0
 79
     0
146
0.0
  0
ENDTAB
  0
TABLE
  2
LTYPE
  5
5
330
0
100
AcDbSymbolTable
 70
     2
  0
LTYPE
  5
14
330
5
100
AcDbSymbolTableRecord
100
AcDbLinetypeTableRecord
  2
ByBlock
 70
     0
  3

 72
    65
 73
     0
 40
0.0
  0
LTYPE
  5
15
330
5
100
AcDbSymbolTableRecord
100
AcDbLinetypeTableRecord
  2
ByLayer
 70
     0
  3

 72
    65
 73
     0
 40
0.0
  0
LTYPE
  5
16
330
5
100
AcDbSymbolTableRecord
100
AcDbLinetypeTableRecord
  2
Continuous
 70
     0
  3
Solid line
 72
    65
 73
     0
 40
0.0
  0
LTYPE
  5
886
330
5
100
AcDbSymbolTableRecord
100
AcDbLinetypeTableRecord
  2
DASHED
 70
     0
  3
Dashed __ __ __ __ __ __ __ __ __ __ __ __ __ _
 72
    65
 73
     2
 40
0.75
 49
0.5
 74
     0
 49
-0.25
 74
     0
  0
ENDTAB
  0
TABLE
  2
LAYER
  5
2
102
{ACAD_XDICTIONARY
360
7D1
102
}
330
0
100
AcDbSymbolTable
 70
     4
  0
LAYER
  5
10
102
{ACAD_XDICTIONARY
360
2D7F
102
}
330
2
100
AcDbSymbolTableRecord
100
AcDbLayerTableRecord
  2
0
 70
     0
 62
     7
  6
Continuous
370
    80
390
F
  0
LAYER
  5
87B
102
{ACAD_XDICTIONARY
360
2D81
102
}
330
2
100
AcDbSymbolTableRecord
100
AcDbLayerTableRecord
  2
STREFA BEZPIECZEŃSTWA
 70
     0
 62
     7
  6
DASHED
370
    80
390
F
1001
AcAecLayerStandard
1000

1000

  0
LAYER
  5
87D
102
{ACAD_XDICTIONARY
360
2D83
102
}
330
2
100
AcDbSymbolTableRecord
100
AcDbLayerTableRecord
  2
WYMIAR
 70
     0
 62
     7
  6
Continuous
370
    80
390
F
1001
AcAecLayerStandard
1000

1000

  0
LAYER
  5
8CC
330
2
100
AcDbSymbolTableRecord
100
AcDbLayerTableRecord
  2
Defpoints
 70
     0
 62
     7
  6
Continuous
290
     0
370
     5
390
F
1001
RAK
1000
{ACET-LAYISO
1070
     0
1070
     7
1000
Continuous
1071
        5
1071
        0
1005
F
1000
ACET-LAYISO}
  0
ENDTAB
  0
TABLE
  2
STYLE
  5
3
330
0
100
AcDbSymbolTable
 70
     2
  0
STYLE
  5
11
330
3
100
AcDbSymbolTableRecord
100
AcDbTextStyleTableRecord
  2
Standard
 70
     0
 40
0.0
 41
1.0
 50
0.0
 71
     0
 42
0.2
  3
txt
  4

  0
STYLE
  5
8CE
330
3
100
AcDbSymbolTableRecord
100
AcDbTextStyleTableRecord
  2
AR 01 SWIS
 70
     0
 40
0.0
 41
1.0
 50
0.0
 71
     0
 42
55.0
  3

  4

1001
ACAD
1000
Swis721 Cn BT
1071
       34
  0
ENDTAB
  0
TABLE
  2
VIEW
  5
6
330
0
100
AcDbSymbolTable
 70
     0
  0
ENDTAB
  0
TABLE
  2
UCS
  5
7
330
0
100
AcDbSymbolTable
 70
     0
  0
ENDTAB
  0
TABLE
  2
APPID
  5
9
330
0
100
AcDbSymbolTable
 70
     9
  0
APPID
  5
12
330
9
100
AcDbSymbolTableRecord
100
AcDbRegAppTableRecord
  2
ACAD
 70
     0
  0
APPID
  5
7CB
330
9
100
AcDbSymbolTableRecord
100
AcDbRegAppTableRecord
  2
ACAD_PSEXT
 70
     0
  0
APPID
  5
875
330
9
100
AcDbSymbolTableRecord
100
AcDbRegAppTableRecord
  2
ACAD_EXEMPT_FROM_CAD_STANDARDS
 70
     0
  0
APPID
  5
87C
330
9
100
AcDbSymbolTableRecord
100
AcDbRegAppTableRecord
  2
AcAecLayerStandard
 70
     0
  0
APPID
  5
8D4
330
9
100
AcDbSymbolTableRecord
100
AcDbRegAppTableRecord
  2
RAK
 70
     0
  0
APPID
  5
8D5
330
9
100
AcDbSymbolTableRecord
100
AcDbRegAppTableRecord
  2
ACAD_DSTYLE_DIMJOGGED_JOGANGLE_SYMBOL
 70
     0
  0
APPID
  5
8D6
330
9
100
AcDbSymbolTableRecord
100
AcDbRegAppTableRecord
  2
ACAD_DSTYLE_DIMJAG
 70
     0
  0
APPID
  5
8D7
330
9
100
AcDbSymbolTableRecord
100
AcDbRegAppTableRecord
  2
ACAD_DSTYLE_DIMTALN
 70
     0
  0
APPID
  5
2D71
330
9
100
AcDbSymbolTableRecord
100
AcDbRegAppTableRecord
  2
ACAD_MLEADERVER
 70
     0
  0
ENDTAB
  0
TABLE
  2
DIMSTYLE
  5
A
330
0
100
AcDbSymbolTable
 70
     2
100
AcDbDimStyleTable
 71
     1
340
8CF
  0
DIMSTYLE
105
8CF
102
{ACAD_REACTORS
330
3802
330
3816
102
}
330
A
100
AcDbSymbolTableRecord
100
AcDbDimStyleTableRecord
  2
AR SKALA 1-50
 70
     0
 40
0.02
 41
3.0
 42
20.0
 43
0.0
 44
5.0
 45
0.1
 73
     0
 74
     0
 75
     1
 76
     1
 77
     1
 78
     1
140
9.0
141
12.0
143
1.0
146
0.01
147
6.0
171
     4
172
     1
173
     1
174
     1
176
   256
177
   256
178
   256
179
     1
271
     2
272
     2
274
     4
279
     2
340
8CE
341
8BC
343
8BC
344
8BC
  0
DIMSTYLE
105
A46
330
A
100
AcDbSymbolTableRecord
100
AcDbDimStyleTableRecord
  2
Standard
 70
     0
340
11
  0
ENDTAB
  0
TABLE
  2
BLOCK_RECORD
  5
1
330
0
100
AcDbSymbolTable
 70
     5
  0
BLOCK_RECORD
  5
1F
102
{ACAD_XDICTIONARY
360
5F8
102
}
330
1
100
AcDbSymbolTableRecord
100
AcDbBlockTableRecord
  2
*Model_Space
340
22
  0
BLOCK_RECORD
  5
1B
330
1
100
AcDbSymbolTableRecord
100
AcDbBlockTableRecord
  2
*Paper_Space
340
1E
  0
BLOCK_RECORD
  5
8BC
330
1
100
AcDbSymbolTableRecord
100
AcDbBlockTableRecord
  2
MAR-STRZ
340
0
310
2800000020000000200000000100080000000000000400000000000000000000000000000000000000000000000080000080000000808000800000008000800080800000C0C0C000C0DCC000F0CAA6000020400000206000002080000020A0000020C0000020E00000400000004020000040400000406000004080000040A0
310
000040C0000040E00000600000006020000060400000606000006080000060A0000060C0000060E00000800000008020000080400000806000008080000080A0000080C0000080E00000A0000000A0200000A0400000A0600000A0800000A0A00000A0C00000A0E00000C0000000C0200000C0400000C0600000C0800000C0
310
A00000C0C00000C0E00000E0000000E0200000E0400000E0600000E0800000E0A00000E0C00000E0E00040000000400020004000400040006000400080004000A0004000C0004000E00040200000402020004020400040206000402080004020A0004020C0004020E000404000004040200040404000404060004040800040
310
40A0004040C0004040E00040600000406020004060400040606000406080004060A0004060C0004060E00040800000408020004080400040806000408080004080A0004080C0004080E00040A0000040A0200040A0400040A0600040A0800040A0A00040A0C00040A0E00040C0000040C0200040C0400040C0600040C08000
310
40C0A00040C0C00040C0E00040E0000040E0200040E0400040E0600040E0800040E0A00040E0C00040E0E00080000000800020008000400080006000800080008000A0008000C0008000E00080200000802020008020400080206000802080008020A0008020C0008020E00080400000804020008040400080406000804080
310
008040A0008040C0008040E00080600000806020008060400080606000806080008060A0008060C0008060E00080800000808020008080400080806000808080008080A0008080C0008080E00080A0000080A0200080A0400080A0600080A0800080A0A00080A0C00080A0E00080C0000080C0200080C0400080C0600080C0
310
800080C0A00080C0C00080C0E00080E0000080E0200080E0400080E0600080E0800080E0A00080E0C00080E0E000C0000000C0002000C0004000C0006000C0008000C000A000C000C000C000E000C0200000C0202000C0204000C0206000C0208000C020A000C020C000C020E000C0400000C0402000C0404000C0406000C0
310
408000C040A000C040C000C040E000C0600000C0602000C0604000C0606000C0608000C060A000C060C000C060E000C0800000C0802000C0804000C0806000C0808000C080A000C080C000C080E000C0A00000C0A02000C0A04000C0A06000C0A08000C0A0A000C0A0C000C0A0E000C0C00000C0C02000C0C04000C0C06000
310
C0C08000C0C0A000F0FBFF00A4A0A000808080000000FF0000FF000000FFFF00FF000000FF00FF00FFFF0000FFFFFF00000000000000000000000000000000000000000000000000000000000000000000000000000000000000000000000000FF000000000000000000000000000000000000000000000000000000000000
310
00FF00000000000000000000000000000000000000000000000000000000000000FF00000000000000000000000000000000000000000000000000000000000000FF00000000000000000000000000000000000000000000000000000000000000FF000000000000000000000000000000000000000000F900000000000000
310
0000FF00000000000000000000000000000000000000000000F90000000000000000FF0000000000000000000000000000000000000000000000F900000000000000FF000000000000000000000000000000000000000000000000F9000000000000FF00000000000000000000000000000000000000000000000000F90000
310
000000FF0000000000000000000000000000000000000000000000000000F900000000FF000000000000000000000000000000000000000000000000000000F9000000FF00000000000000000000000000000000000000000000000000000000F90000FF000000000000000000000000000000000000000000000000000000
310
0000F900FF000000000000000000000000000000000000000000000000000000000000F9FF00000000000000000000000000000000000000000000FFFFFFFFFFFFFFFFFFFFFFFFFFFFFFFFFFFF0000000000000000000000000000000000000000000000FFF900000000000000000000000000000000000000000000000000
310
0000000000FF00F90000000000000000000000000000000000000000000000000000000000FF0000F900000000000000000000000000000000000000000000000000000000FF000000F9000000000000000000000000000000000000000000000000000000FF00000000F90000000000000000000000000000000000000000
310
000000000000FF0000000000F900000000000000000000000000000000000000000000000000FF000000000000F9000000000000000000000000000000000000000000000000FF00000000000000F90000000000000000000000000000000000000000000000FF0000000000000000F9000000000000000000000000000000
310
00000000000000FF00000000000000000000000000000000000000000000000000000000000000FF00000000000000000000000000000000000000000000000000000000000000FF00000000000000000000000000000000000000000000000000000000000000FF0000000000000000000000000000000000000000000000
310
0000000000000000FF0000000000000000000000000000000000000000000000000000000000000000000000000000000000000000000000
102
{BLKREFS
331
2CC6
331
2CC7
331
2CCD
331
2CCE
331
380F
331
3810
331
3823
331
3824
102
}
  0
BLOCK_RECORD
  5
3803
330
1
100
AcDbSymbolTableRecord
100
AcDbBlockTableRecord
  2
*D3
340
0
  0
BLOCK_RECORD
  5
3817
330
1
100
AcDbSymbolTableRecord
100
AcDbBlockTableRecord
  2
*D4
340
0
  0
ENDTAB
  0
ENDSEC
  0
SECTION
  2
BLOCKS
  0
BLOCK
  5
20
330
1F
100
AcDbEntity
  8
0
100
AcDbBlockBegin
  2
*Model_Space
 70
     0
 10
0.0
 20
0.0
 30
0.0
  3
*Model_Space
  1

  0
ENDBLK
  5
21
330
1F
100
AcDbEntity
  8
0
100
AcDbBlockEnd
  0
BLOCK
  5
1C
330
1B
100
AcDbEntity
 67
     1
  8
0
100
AcDbBlockBegin
  2
*Paper_Space
 70
     0
 10
0.0
 20
0.0
 30
0.0
  3
*Paper_Space
  1

  0
ENDBLK
  5
1D
330
1B
100
AcDbEntity
 67
     1
  8
0
100
AcDbBlockEnd
  0
BLOCK
  5
8BD
330
8BC
100
AcDbEntity
  8
0
100
AcDbBlockBegin
  2
MAR-STRZ
 70
     0
 10
0.0
 20
0.0
 30
0.0
  3
MAR-STRZ
  1

  0
LINE
  5
8BE
330
8BC
100
AcDbEntity
  8
0
100
AcDbLine
 10
0.0
 20
2.299999999999272
 30
0.0
 11
0.0
 21
-2.299999999999272
 31
0.0
  0
LINE
  5
8BF
330
8BC
100
AcDbEntity
  8
0
 62
    10
100
AcDbLine
 10
1.5
 20
1.5
 30
0.0
 11
-1.5
 21
-1.5
 31
0.0
  0
LINE
  5
8C0
330
8BC
100
AcDbEntity
  8
0
100
AcDbLine
 10
1.399999999999636
 20
0.0
 30
0.0
 11
-1.399999999999636
 21
0.0
 31
0.0
  0
ENDBLK
  5
8C1
330
8BC
100
AcDbEntity
  8
0
100
AcDbBlockEnd
  0
BLOCK
  5
3804
330
3803
100
AcDbEntity
  8
0
100
AcDbBlockBegin
  2
*D3
 70
     1
 10
0.0
 20
0.0
 30
0.0
  3
*D3
  1

  0
LINE
  5
380E
330
3803
100
AcDbEntity
  8
WYMIAR
370
    -2
100
AcDbLine
 10
7.584984512236524
 20
10.20901644024933
 30
0.0
 11
13.46498451223652
 21
10.20901644024933
 31
0.0
  0
INSERT
  5
380F
330
3803
100
AcDbEntity
  8
WYMIAR
370
    -2
100
AcDbBlockReference
  2
MAR-STRZ
 10
7.524984512236525
 20
10.20901644024933
 30
0.0
 41
0.06
 42
0.06
 43
0.06
 50
180.0
  0
INSERT
  5
3810
330
3803
100
AcDbEntity
  8
WYMIAR
370
    -2
100
AcDbBlockReference
  2
MAR-STRZ
 10
13.52498451223652
 20
10.20901644024933
 30
0.0
 41
0.06
 42
0.06
 43
0.06
  0
MTEXT
  5
3811
330
3803
100
AcDbEntity
  8
WYMIAR
100
AcDbMText
 10
10.52498451223652
 20
10.41901644024933
 30
0.0
 40
0.18
 41
0.0
 71
     5
 72
     1
  1
\A1;6.00
  7
AR 01 SWIS
 73
     1
 44
1.0
  0
POINT
  5
3812
330
3803
100
AcDbEntity
  8
Defpoints
 62
     0
100
AcDbPoint
 10
7.524984512236525
 20
9.746558310226964
 30
0.0
  0
POINT
  5
3813
330
3803
100
AcDbEntity
  8
Defpoints
 62
     0
100
AcDbPoint
 10
13.52498451223652
 20
9.746558310226962
 30
0.0
  0
POINT
  5
3814
330
3803
100
AcDbEntity
  8
Defpoints
 62
     0
100
AcDbPoint
 10
13.52498451223652
 20
10.20901644024933
 30
0.0
  0
ENDBLK
  5
3805
330
3803
100
AcDbEntity
  8
0
100
AcDbBlockEnd
  0
BLOCK
  5
3818
330
3817
100
AcDbEntity
  8
0
100
AcDbBlockBegin
  2
*D4
 70
     1
 10
0.0
 20
0.0
 30
0.0
  3
*D4
  1

  0
LINE
  5
3822
330
3817
100
AcDbEntity
  8
WYMIAR
370
    -2
100
AcDbLine
 10
6.870129821483904
 20
9.686558310226963
 30
0.0
 11
6.870129821483903
 21
4.706558310226962
 31
0.0
  0
INSERT
  5
3823
330
3817
100
AcDbEntity
  8
WYMIAR
370
    -2
100
AcDbBlockReference
  2
MAR-STRZ
 10
6.870129821483904
 20
9.746558310226964
 30
0.0
 41
0.06
 42
0.06
 43
0.06
 50
90.0
  0
INSERT
  5
3824
330
3817
100
AcDbEntity
  8
WYMIAR
370
    -2
100
AcDbBlockReference
  2
MAR-STRZ
 10
6.870129821483903
 20
4.646558310226962
 30
0.0
 41
0.06
 42
0.06
 43
0.06
 50
270.0
  0
MTEXT
  5
3825
330
3817
100
AcDbEntity
  8
WYMIAR
100
AcDbMText
 10
6.660129821483902
 20
7.196558310226965
 30
0.0
 40
0.18
 41
0.0
 71
     5
 72
     1
  1
\A1;5.10
  7
AR 01 SWIS
 11
0.0000000000000001
 21
1.0
 31
0.0
 73
     1
 44
1.0
  0
POINT
  5
3826
330
3817
100
AcDbEntity
  8
Defpoints
 62
     0
100
AcDbPoint
 10
7.524984512236525
 20
9.746558310226964
 30
0.0
  0
POINT
  5
3827
330
3817
100
AcDbEntity
  8
Defpoints
 62
     0
100
AcDbPoint
 10
7.524984512236525
 20
4.646558310226962
 30
0.0
  0
POINT
  5
3828
330
3817
100
AcDbEntity
  8
Defpoints
 62
     0
100
AcDbPoint
 10
6.870129821483903
 20
4.646558310226962
 30
0.0
  0
ENDBLK
  5
3819
330
3817
100
AcDbEntity
  8
0
100
AcDbBlockEnd
  0
ENDSEC
  0
SECTION
  2
ENTITIES
  0
LINE
  5
3579
330
1F
100
AcDbEntity
  8
STREFA BEZPIECZEŃSTWA
100
AcDbLine
 10
7.524984512236525
 20
4.646558310226962
 30
0.0
 11
13.52498451223652
 21
4.646558310226962
 31
0.0
  0
LINE
  5
357A
330
1F
100
AcDbEntity
  8
STREFA BEZPIECZEŃSTWA
100
AcDbLine
 10
13.52498451223652
 20
4.646558310226962
 30
0.0
 11
13.52498451223652
 21
9.746558310226962
 31
0.0
  0
LINE
  5
357B
102
{ACAD_REACTORS
330
3815
102
}
330
1F
100
AcDbEntity
  8
STREFA BEZPIECZEŃSTWA
100
AcDbLine
 10
13.52498451223652
 20
9.746558310226962
 30
0.0
 11
7.524984512236525
 21
9.746558310226964
 31
0.0
  0
LINE
  5
357C
102
{ACAD_REACTORS
330
3815
330
3829
102
}
330
1F
100
AcDbEntity
  8
STREFA BEZPIECZEŃSTWA
100
AcDbLine
 10
7.524984512236525
 20
9.746558310226964
 30
0.0
 11
7.524984512236525
 21
4.646558310226962
 31
0.0
  0
LINE
  5
357D
330
1F
100
AcDbEntity
  8
0
100
AcDbLine
 10
10.291704752152
 20
8.283423814411477
 30
0.0
 11
10.291704752152
 21
8.283000044909352
 31
0.0
  0
LINE
  5
357E
330
1F
100
AcDbEntity
  8
0
100
AcDbLine
 10
10.27230361185584
 20
6.257759189971991
 30
0.0
 11
10.27230361185584
 21
6.265969929900182
 31
0.0
  0
LINE
  5
357F
330
1F
100
AcDbEntity
  8
0
100
AcDbLine
 10
9.239868478612407
 20
6.267346266473838
 30
0.0
 11
9.459652254454653
 21
6.267346266473838
 31
0.0
  0
LINE
  5
3580
330
1F
100
AcDbEntity
  8
0
100
AcDbLine
 10
9.459652254454653
 20
6.267346266473838
 30
0.0
 11
10.08406153640033
 21
6.267346266473837
 31
0.0
  0
LINE
  5
3581
330
1F
100
AcDbEntity
  8
0
100
AcDbLine
 10
10.15786847861241
 20
6.267346266473837
 30
0.0
 11
10.16926129882082
 21
6.267346266473837
 31
0.0
  0
LINE
  5
3582
330
1F
100
AcDbEntity
  8
0
100
AcDbLine
 10
10.29080422483359
 20
6.258406237584747
 30
0.0
 11
10.28922863431608
 21
6.258674253481452
 31
0.0
  0
LINE
  5
3583
330
1F
100
AcDbEntity
  8
0
100
AcDbLine
 10
10.28239838381067
 20
6.444626539148731
 30
0.0
 11
10.26945743155554
 21
6.442922830463184
 31
0.0
  0
LINE
  5
3584
330
1F
100
AcDbEntity
  8
0
100
AcDbLine
 10
10.26945743155554
 20
6.442922830463184
 30
0.0
 11
10.25739838381067
 21
6.437927809337952
 31
0.0
  0
LINE
  5
3585
330
1F
100
AcDbEntity
  8
0
100
AcDbLine
 10
10.24704304475134
 20
6.429981878208057
 30
0.0
 11
10.23909711362145
 21
6.419626539148731
 31
0.0
  0
LINE
  5
3586
330
1F
100
AcDbEntity
  8
0
100
AcDbLine
 10
10.23909711362145
 20
6.419626539148731
 30
0.0
 11
10.23410209249622
 21
6.407567491403857
 31
0.0
  0
LINE
  5
3587
330
1F
100
AcDbEntity
  8
0
100
AcDbLine
 10
10.23410209249622
 20
6.407567491403857
 30
0.0
 11
10.23239838381067
 21
6.394626539148731
 31
0.0
  0
LINE
  5
3588
330
1F
100
AcDbEntity
  8
0
100
AcDbLine
 10
10.23239838381067
 20
6.394626539148731
 30
0.0
 11
10.23410209249622
 21
6.381685586893605
 31
0.0
  0
LINE
  5
3589
330
1F
100
AcDbEntity
  8
0
100
AcDbLine
 10
10.23410209249622
 20
6.381685586893605
 30
0.0
 11
10.23909711362145
 21
6.369626539148731
 31
0.0
  0
LINE
  5
358A
330
1F
100
AcDbEntity
  8
0
100
AcDbLine
 10
10.24704304475134
 20
6.359271200089404
 30
0.0
 11
10.25739838381067
 21
6.351325268959509
 31
0.0
  0
LINE
  5
358B
330
1F
100
AcDbEntity
  8
0
100
AcDbLine
 10
10.25739838381067
 20
6.351325268959509
 30
0.0
 11
10.26945743155554
 21
6.346330247834278
 31
0.0
  0
LINE
  5
358C
330
1F
100
AcDbEntity
  8
0
100
AcDbLine
 10
10.26945743155554
 20
6.346330247834278
 30
0.0
 11
10.28239838381067
 21
6.34462653914873
 31
0.0
  0
LINE
  5
358D
330
1F
100
AcDbEntity
  8
0
100
AcDbLine
 10
10.28239838381067
 20
6.34462653914873
 30
0.0
 11
10.2953393360658
 21
6.346330247834278
 31
0.0
  0
LINE
  5
358E
330
1F
100
AcDbEntity
  8
0
100
AcDbLine
 10
10.2953393360658
 20
6.346330247834278
 30
0.0
 11
10.30739838381067
 21
6.351325268959509
 31
0.0
  0
LINE
  5
358F
330
1F
100
AcDbEntity
  8
0
100
AcDbLine
 10
10.30739838381067
 20
6.351325268959509
 30
0.0
 11
10.31775372287
 21
6.359271200089404
 31
0.0
  0
LINE
  5
3590
330
1F
100
AcDbEntity
  8
0
100
AcDbLine
 10
10.32569965399989
 20
6.369626539148732
 30
0.0
 11
10.33069467512512
 21
6.381685586893605
 31
0.0
  0
LINE
  5
3591
330
1F
100
AcDbEntity
  8
0
100
AcDbLine
 10
10.33069467512512
 20
6.381685586893605
 30
0.0
 11
10.33239838381067
 21
6.394626539148731
 31
0.0
  0
LINE
  5
3592
330
1F
100
AcDbEntity
  8
0
100
AcDbLine
 10
10.33239838381067
 20
6.394626539148731
 30
0.0
 11
10.33069467512512
 21
6.407567491403857
 31
0.0
  0
LINE
  5
3593
330
1F
100
AcDbEntity
  8
0
100
AcDbLine
 10
10.33069467512512
 20
6.407567491403857
 30
0.0
 11
10.32569965399989
 21
6.41962653914873
 31
0.0
  0
LINE
  5
3594
330
1F
100
AcDbEntity
  8
0
100
AcDbLine
 10
10.32569965399989
 20
6.41962653914873
 30
0.0
 11
10.31775372287
 21
6.429981878208057
 31
0.0
  0
LINE
  5
3595
330
1F
100
AcDbEntity
  8
0
100
AcDbLine
 10
10.31775372287
 20
6.429981878208057
 30
0.0
 11
10.30739838381067
 21
6.437927809337952
 31
0.0
  0
LINE
  5
3596
330
1F
100
AcDbEntity
  8
0
100
AcDbLine
 10
10.30739838381067
 20
6.437927809337952
 30
0.0
 11
10.2953393360658
 21
6.442922830463184
 31
0.0
  0
LINE
  5
3597
330
1F
100
AcDbEntity
  8
0
100
AcDbLine
 10
10.2953393360658
 20
6.442922830463184
 30
0.0
 11
10.28239838381067
 21
6.444626539148731
 31
0.0
  0
LINE
  5
3598
330
1F
100
AcDbEntity
  8
0
100
AcDbLine
 10
12.06749100743768
 20
8.140283570689607
 30
0.0
 11
10.86430033684154
 21
8.140283570689607
 31
0.0
  0
LINE
  5
3599
330
1F
100
AcDbEntity
  8
0
100
AcDbLine
 10
11.47735511466591
 20
6.365969929900184
 30
0.0
 11
10.32289383903898
 21
6.365969929900182
 31
0.0
  0
LINE
  5
359A
330
1F
100
AcDbEntity
  8
0
100
AcDbLine
 10
11.47943089575987
 20
6.265969929900183
 30
0.0
 11
10.29213250908331
 21
6.265969929900182
 31
0.0
  0
LINE
  5
359B
330
1F
100
AcDbEntity
  8
0
100
AcDbLine
 10
10.27230361185584
 20
6.265969929900182
 30
0.0
 11
10.24704304475134
 21
6.265969929900182
 31
0.0
  0
LINE
  5
359C
330
1F
100
AcDbEntity
  8
0
100
AcDbLine
 10
9.240713604992667
 20
7.057298497193272
 30
0.0
 11
10.08471360499266
 21
7.057298497193272
 31
0.0
  0
LINE
  5
359D
330
1F
100
AcDbEntity
  8
0
100
AcDbLine
 10
10.08471360499266
 20
6.960293535462165
 30
0.0
 11
9.240713604992667
 21
6.960293535462167
 31
0.0
  0
LINE
  5
359E
330
1F
100
AcDbEntity
  8
0
100
AcDbLine
 10
9.240713604992667
 20
6.854234428207597
 30
0.0
 11
10.08471360499266
 21
6.854234428207597
 31
0.0
  0
LINE
  5
359F
330
1F
100
AcDbEntity
  8
0
100
AcDbLine
 10
10.08471360499266
 20
6.754001533916451
 30
0.0
 11
9.240713604992667
 21
6.754001533916451
 31
0.0
  0
LINE
  5
35A0
330
1F
100
AcDbEntity
  8
0
100
AcDbLine
 10
9.240713604992667
 20
6.651696189105308
 30
0.0
 11
10.08471360499266
 21
6.651696189105308
 31
0.0
  0
LINE
  5
35A1
330
1F
100
AcDbEntity
  8
0
100
AcDbLine
 10
10.08471360499266
 20
6.548010238253384
 30
0.0
 11
9.240713604992667
 21
6.548010238253385
 31
0.0
  0
LINE
  5
35A2
330
1F
100
AcDbEntity
  8
0
100
AcDbLine
 10
9.240713604992667
 20
6.45288763522053
 30
0.0
 11
10.08471360499266
 21
6.45288763522053
 31
0.0
  0
LINE
  5
35A3
330
1F
100
AcDbEntity
  8
0
100
AcDbLine
 10
12.143704752152
 20
8.266075629968952
 30
0.0
 11
10.85719116688343
 21
8.266075629968952
 31
0.0
  0
LINE
  5
35A4
330
1F
100
AcDbEntity
  8
0
100
AcDbLine
 10
10.26283737097365
 20
8.26607562996895
 30
0.0
 11
10.24704304475134
 21
8.26607562996895
 31
0.0
  0
LINE
  5
35A5
330
1F
100
AcDbEntity
  8
0
100
AcDbLine
 10
12.00217134649701
 20
8.139643888623702
 30
0.0
 11
11.98923039424188
 21
8.137940179938155
 31
0.0
  0
LINE
  5
35A6
330
1F
100
AcDbEntity
  8
0
100
AcDbLine
 10
11.98923039424188
 20
8.137940179938155
 30
0.0
 11
11.977171346497
 21
8.132945158812924
 31
0.0
  0
LINE
  5
35A7
330
1F
100
AcDbEntity
  8
0
100
AcDbLine
 10
11.977171346497
 20
8.132945158812924
 30
0.0
 11
11.96681600743768
 21
8.12499922768303
 31
0.0
  0
LINE
  5
35A8
330
1F
100
AcDbEntity
  8
0
100
AcDbLine
 10
11.96681600743768
 20
8.12499922768303
 30
0.0
 11
11.95887007630778
 21
8.114643888623703
 31
0.0
  0
LINE
  5
35A9
330
1F
100
AcDbEntity
  8
0
100
AcDbLine
 10
11.95887007630778
 20
8.114643888623703
 30
0.0
 11
11.95387505518255
 21
8.102584840878829
 31
0.0
  0
LINE
  5
35AA
330
1F
100
AcDbEntity
  8
0
100
AcDbLine
 10
11.95387505518255
 20
8.102584840878829
 30
0.0
 11
11.952171346497
 21
8.089643888623703
 31
0.0
  0
LINE
  5
35AB
330
1F
100
AcDbEntity
  8
0
100
AcDbLine
 10
11.952171346497
 20
8.089643888623703
 30
0.0
 11
11.95387505518255
 21
8.076702936368576
 31
0.0
  0
LINE
  5
35AC
330
1F
100
AcDbEntity
  8
0
100
AcDbLine
 10
11.95387505518255
 20
8.076702936368576
 30
0.0
 11
11.95887007630778
 21
8.064643888623702
 31
0.0
  0
LINE
  5
35AD
330
1F
100
AcDbEntity
  8
0
100
AcDbLine
 10
11.95887007630778
 20
8.064643888623702
 30
0.0
 11
11.96681600743768
 21
8.054288549564375
 31
0.0
  0
LINE
  5
35AE
330
1F
100
AcDbEntity
  8
0
100
AcDbLine
 10
11.96681600743768
 20
8.054288549564375
 30
0.0
 11
11.977171346497
 21
8.046342618434481
 31
0.0
  0
LINE
  5
35AF
330
1F
100
AcDbEntity
  8
0
100
AcDbLine
 10
11.977171346497
 20
8.046342618434481
 30
0.0
 11
11.98923039424188
 21
8.04134759730925
 31
0.0
  0
LINE
  5
35B0
330
1F
100
AcDbEntity
  8
0
100
AcDbLine
 10
11.98923039424188
 20
8.04134759730925
 30
0.0
 11
12.00217134649701
 21
8.039643888623702
 31
0.0
  0
LINE
  5
35B1
330
1F
100
AcDbEntity
  8
0
100
AcDbLine
 10
12.00217134649701
 20
8.039643888623702
 30
0.0
 11
12.01511229875213
 21
8.04134759730925
 31
0.0
  0
LINE
  5
35B2
330
1F
100
AcDbEntity
  8
0
100
AcDbLine
 10
12.01511229875213
 20
8.04134759730925
 30
0.0
 11
12.027171346497
 21
8.046342618434481
 31
0.0
  0
LINE
  5
35B3
330
1F
100
AcDbEntity
  8
0
100
AcDbLine
 10
12.027171346497
 20
8.046342618434481
 30
0.0
 11
12.03752668555633
 21
8.054288549564375
 31
0.0
  0
LINE
  5
35B4
330
1F
100
AcDbEntity
  8
0
100
AcDbLine
 10
12.03752668555633
 20
8.054288549564375
 30
0.0
 11
12.04547261668623
 21
8.064643888623704
 31
0.0
  0
LINE
  5
35B5
330
1F
100
AcDbEntity
  8
0
100
AcDbLine
 10
12.04547261668623
 20
8.064643888623704
 30
0.0
 11
12.05046763781146
 21
8.076702936368576
 31
0.0
  0
LINE
  5
35B6
330
1F
100
AcDbEntity
  8
0
100
AcDbLine
 10
12.05046763781146
 20
8.076702936368576
 30
0.0
 11
12.05217134649701
 21
8.089643888623703
 31
0.0
  0
LINE
  5
35B7
330
1F
100
AcDbEntity
  8
0
100
AcDbLine
 10
12.05217134649701
 20
8.089643888623703
 30
0.0
 11
12.05046763781146
 21
8.102584840878829
 31
0.0
  0
LINE
  5
35B8
330
1F
100
AcDbEntity
  8
0
100
AcDbLine
 10
12.05046763781146
 20
8.102584840878829
 30
0.0
 11
12.04547261668623
 21
8.114643888623701
 31
0.0
  0
LINE
  5
35B9
330
1F
100
AcDbEntity
  8
0
100
AcDbLine
 10
12.04547261668623
 20
8.114643888623701
 30
0.0
 11
12.03752668555633
 21
8.12499922768303
 31
0.0
  0
LINE
  5
35BA
330
1F
100
AcDbEntity
  8
0
100
AcDbLine
 10
12.03752668555633
 20
8.12499922768303
 30
0.0
 11
12.027171346497
 21
8.132945158812924
 31
0.0
  0
LINE
  5
35BB
330
1F
100
AcDbEntity
  8
0
100
AcDbLine
 10
12.027171346497
 20
8.132945158812924
 30
0.0
 11
12.01511229875213
 21
8.137940179938155
 31
0.0
  0
LINE
  5
35BC
330
1F
100
AcDbEntity
  8
0
100
AcDbLine
 10
12.01511229875213
 20
8.137940179938155
 30
0.0
 11
12.00217134649701
 21
8.139643888623702
 31
0.0
  0
LINE
  5
35BD
330
1F
100
AcDbEntity
  8
0
100
AcDbLine
 10
11.75234050727659
 20
6.54854910590217
 30
0.0
 11
11.79643934094262
 21
6.586292248555044
 31
0.0
  0
LINE
  5
35BE
330
1F
100
AcDbEntity
  8
0
100
AcDbLine
 10
11.51717333087418
 20
6.468329404067839
 30
0.0
 11
11.50852521073677
 21
6.462667557193935
 31
0.0
  0
LINE
  5
35BF
330
1F
100
AcDbEntity
  8
0
100
AcDbLine
 10
12.16892569506591
 20
6.42474212691922
 30
0.0
 11
12.16892569506591
 21
6.84246764632223
 31
0.0
  0
LINE
  5
35C0
330
1F
100
AcDbEntity
  8
0
100
AcDbLine
 10
11.52820283376052
 20
6.216143507131846
 30
0.0
 11
11.5197052846428
 21
6.219028036369754
 31
0.0
  0
LINE
  5
35C1
330
1F
100
AcDbEntity
  8
0
100
AcDbLine
 10
12.10601686655639
 20
6.905376474831756
 30
0.0
 11
12.11422811639876
 21
6.904838281083044
 31
0.0
  0
LINE
  5
35C2
330
1F
100
AcDbEntity
  8
0
100
AcDbLine
 10
11.98552216580628
 20
6.215610483141971
 30
0.0
 11
12.01258377684838
 21
6.220993372259462
 31
0.0
  0
LINE
  5
35C3
330
1F
100
AcDbEntity
  8
0
100
AcDbLine
 10
11.91365922953806
 20
6.858400966598171
 30
0.0
 11
11.91792644081926
 21
6.866160022081043
 31
0.0
  0
LINE
  5
35C4
330
1F
100
AcDbEntity
  8
0
100
AcDbLine
 10
11.94878286798264
 20
6.897386100625542
 30
0.0
 11
11.95649055951041
 21
6.90174540394344
 31
0.0
  0
LINE
  5
35C5
330
1F
100
AcDbEntity
  8
0
100
AcDbLine
 10
12.03871126403691
 20
6.229862459059008
 30
0.0
 11
12.06345757882218
 21
6.242065991006494
 31
0.0
  0
LINE
  5
35C6
330
1F
100
AcDbEntity
  8
0
100
AcDbLine
 10
11.5459587650412
 20
6.213805894431755
 30
0.0
 11
11.95798946257845
 21
6.213805894431755
 31
0.0
  0
LINE
  5
35C7
330
1F
100
AcDbEntity
  8
0
100
AcDbLine
 10
12.13009103297648
 20
6.900587825396442
 30
0.0
 11
12.13747128081115
 21
6.896948289933797
 31
0.0
  0
LINE
  5
35C8
330
1F
100
AcDbEntity
  8
0
100
AcDbLine
 10
11.55680581664931
 20
6.478419232879495
 30
0.0
 11
11.59309092093082
 21
6.481616032643524
 31
0.0
  0
LINE
  5
35C9
330
1F
100
AcDbEntity
  8
0
100
AcDbLine
 10
12.06345757882218
 20
6.242065991006494
 30
0.0
 11
12.08639930489723
 21
6.25739516228684
 31
0.0
  0
LINE
  5
35CA
330
1F
100
AcDbEntity
  8
0
100
AcDbLine
 10
11.91792644081926
 20
6.866160022081043
 30
0.0
 11
11.92288996643273
 21
6.873493196536161
 31
0.0
  0
LINE
  5
35CB
330
1F
100
AcDbEntity
  8
0
100
AcDbLine
 10
12.01258377684838
 20
6.220993372259462
 30
0.0
 11
12.03871126403691
 21
6.229862459059008
 31
0.0
  0
LINE
  5
35CC
330
1F
100
AcDbEntity
  8
0
100
AcDbLine
 10
11.90111555685414
 20
6.789640668566843
 30
0.0
 11
11.904183815116
 21
6.824466769421455
 31
0.0
  0
LINE
  5
35CD
330
1F
100
AcDbEntity
  8
0
100
AcDbLine
 10
12.10714390296828
 20
6.275587686529391
 30
0.0
 11
12.12533642721082
 21
6.296332284600435
 31
0.0
  0
LINE
  5
35CE
330
1F
100
AcDbEntity
  8
0
100
AcDbLine
 10
11.92850763375451
 20
6.880338183604555
 30
0.0
 11
11.93473171224187
 21
6.886636824814196
 31
0.0
  0
LINE
  5
35CF
330
1F
100
AcDbEntity
  8
0
100
AcDbLine
 10
11.90735255122198
 20
6.841871970357104
 30
0.0
 11
11.91012458897434
 21
6.850281954947115
 31
0.0
  0
LINE
  5
35D0
330
1F
100
AcDbEntity
  8
0
100
AcDbLine
 10
12.16678212871533
 20
6.858749649245583
 30
0.0
 11
12.1683875013172
 21
6.850678896164602
 31
0.0
  0
LINE
  5
35D1
330
1F
100
AcDbEntity
  8
0
100
AcDbLine
 10
12.15592579578823
 20
6.880764114662953
 30
0.0
 11
12.16049751016795
 21
6.873922060576992
 31
0.0
  0
LINE
  5
35D2
330
1F
100
AcDbEntity
  8
0
100
AcDbLine
 10
11.55680581664931
 20
6.478419232879495
 30
0.0
 11
11.54648263210851
 21
6.477891641303423
 31
0.0
  0
LINE
  5
35D3
330
1F
100
AcDbEntity
  8
0
100
AcDbLine
 10
11.49744865864668
 20
6.233899438412525
 30
0.0
 11
11.49153182985979
 21
6.240646288569367
 31
0.0
  0
LINE
  5
35D4
330
1F
100
AcDbEntity
  8
0
100
AcDbLine
 10
11.95798946257845
 20
6.213805894431755
 30
0.0
 11
11.98552216580628
 21
6.215610483141971
 31
0.0
  0
LINE
  5
35D5
330
1F
100
AcDbEntity
  8
0
100
AcDbLine
 10
11.5197052846428
 20
6.219028036369754
 30
0.0
 11
11.51165693985355
 21
6.222997040789697
 31
0.0
  0
LINE
  5
35D6
330
1F
100
AcDbEntity
  8
0
100
AcDbLine
 10
12.11422811639876
 20
6.904838281083044
 30
0.0
 11
12.12229886947974
 21
6.90323290848117
 31
0.0
  0
LINE
  5
35D7
330
1F
100
AcDbEntity
  8
0
100
AcDbLine
 10
11.904183815116
 20
6.824466769421455
 30
0.0
 11
11.90536666891572
 21
6.833242468310615
 31
0.0
  0
LINE
  5
35D8
330
1F
100
AcDbEntity
  8
0
100
AcDbLine
 10
12.12533642721082
 20
6.296332284600435
 30
0.0
 11
12.14066559849117
 21
6.319274010675487
 31
0.0
  0
LINE
  5
35D9
330
1F
100
AcDbEntity
  8
0
100
AcDbLine
 10
11.92288996643273
 20
6.873493196536161
 30
0.0
 11
11.92850763375451
 21
6.880338183604555
 31
0.0
  0
LINE
  5
35DA
330
1F
100
AcDbEntity
  8
0
100
AcDbLine
 10
11.94150931897613
 20
6.892335603723795
 30
0.0
 11
11.94878286798264
 21
6.897386100625542
 31
0.0
  0
LINE
  5
35DB
330
1F
100
AcDbEntity
  8
0
100
AcDbLine
 10
11.53700419178532
 20
6.214392808170978
 30
0.0
 11
11.52820283376052
 21
6.216143507131846
 31
0.0
  0
LINE
  5
35DC
330
1F
100
AcDbEntity
  8
0
100
AcDbLine
 10
11.93473171224187
 20
6.886636824814196
 30
0.0
 11
11.94150931897613
 21
6.892335603723795
 31
0.0
  0
LINE
  5
35DD
330
1F
100
AcDbEntity
  8
0
100
AcDbLine
 10
11.8341824835955
 20
6.630391082221074
 30
0.0
 11
11.86466491119195
 21
6.679788182903672
 31
0.0
  0
LINE
  5
35DE
330
1F
100
AcDbEntity
  8
0
100
AcDbLine
 10
11.50852521073677
 20
6.462667557193935
 30
0.0
 11
11.50069853661332
 21
6.455915545338205
 31
0.0
  0
LINE
  5
35DF
330
1F
100
AcDbEntity
  8
0
100
AcDbLine
 10
11.64943250740072
 20
6.495575888734292
 30
0.0
 11
11.70294340659399
 21
6.518066678305721
 31
0.0
  0
LINE
  5
35E0
330
1F
100
AcDbEntity
  8
0
100
AcDbLine
 10
11.48007321896048
 20
6.420600748922488
 30
0.0
 11
11.47803761617533
 21
6.410466509274851
 31
0.0
  0
LINE
  5
35E1
330
1F
100
AcDbEntity
  8
0
100
AcDbLine
 10
12.12229886947974
 20
6.90323290848117
 30
0.0
 11
12.13009103297648
 21
6.900587825396442
 31
0.0
  0
LINE
  5
35E2
330
1F
100
AcDbEntity
  8
0
100
AcDbLine
 10
11.59309092093082
 20
6.481616032643524
 30
0.0
 11
11.64943250740072
 21
6.495575888734292
 31
0.0
  0
LINE
  5
35E3
330
1F
100
AcDbEntity
  8
0
100
AcDbLine
 10
11.50419550880352
 20
6.227982609625636
 30
0.0
 11
11.49744865864668
 21
6.233899438412525
 31
0.0
  0
LINE
  5
35E4
330
1F
100
AcDbEntity
  8
0
100
AcDbLine
 10
11.479692727366
 20
6.264653613526362
 30
0.0
 11
11.47794202840513
 21
6.273454971551158
 31
0.0
  0
LINE
  5
35E5
330
1F
100
AcDbEntity
  8
0
100
AcDbLine
 10
11.52649208753594
 20
6.472802352336451
 30
0.0
 11
11.51717333087418
 21
6.468329404067839
 31
0.0
  0
LINE
  5
35E6
330
1F
100
AcDbEntity
  8
0
100
AcDbLine
 10
11.48654626102386
 20
6.248107719619397
 30
0.0
 11
11.48257725660391
 21
6.256156064408651
 31
0.0
  0
LINE
  5
35E7
330
1F
100
AcDbEntity
  8
0
100
AcDbLine
 10
12.1641370456306
 20
6.866541812742323
 30
0.0
 11
12.16678212871533
 21
6.858749649245583
 31
0.0
  0
LINE
  5
35E8
330
1F
100
AcDbEntity
  8
0
100
AcDbLine
 10
11.54648263210851
 20
6.477891641303423
 30
0.0
 11
11.53631897639581
 21
6.476008400881061
 31
0.0
  0
LINE
  5
35E9
330
1F
100
AcDbEntity
  8
0
100
AcDbLine
 10
12.08639930489723
 20
6.25739516228684
 30
0.0
 11
12.10714390296828
 21
6.275587686529391
 31
0.0
  0
LINE
  5
35EA
330
1F
100
AcDbEntity
  8
0
100
AcDbLine
 10
11.91012458897434
 20
6.850281954947115
 30
0.0
 11
11.91365922953806
 21
6.858400966598171
 31
0.0
  0
LINE
  5
35EB
330
1F
100
AcDbEntity
  8
0
100
AcDbLine
 10
11.47794202840513
 20
6.273454971551158
 30
0.0
 11
11.47735511466591
 21
6.28240954480704
 31
0.0
  0
LINE
  5
35EC
330
1F
100
AcDbEntity
  8
0
100
AcDbLine
 10
12.13747128081115
 20
6.896948289933797
 30
0.0
 11
12.14431333489711
 21
6.89237657555407
 31
0.0
  0
LINE
  5
35ED
330
1F
100
AcDbEntity
  8
0
100
AcDbLine
 10
11.5459587650412
 20
6.213805894431755
 30
0.0
 11
11.53700419178532
 21
6.214392808170978
 31
0.0
  0
LINE
  5
35EE
330
1F
100
AcDbEntity
  8
0
100
AcDbLine
 10
11.48257725660391
 20
6.256156064408651
 30
0.0
 11
11.479692727366
 21
6.264653613526362
 31
0.0
  0
LINE
  5
35EF
330
1F
100
AcDbEntity
  8
0
100
AcDbLine
 10
11.49382979327869
 20
6.448191112871183
 30
0.0
 11
11.48803876071513
 21
6.439628961635511
 31
0.0
  0
LINE
  5
35F0
330
1F
100
AcDbEntity
  8
0
100
AcDbLine
 10
11.51165693985355
 20
6.222997040789697
 30
0.0
 11
11.50419550880352
 21
6.227982609625636
 31
0.0
  0
LINE
  5
35F1
330
1F
100
AcDbEntity
  8
0
100
AcDbLine
 10
11.95649055951041
 20
6.90174540394344
 30
0.0
 11
11.96456690511401
 21
6.905376474831756
 31
0.0
  0
LINE
  5
35F2
330
1F
100
AcDbEntity
  8
0
100
AcDbLine
 10
11.90536666891572
 20
6.833242468310615
 30
0.0
 11
11.90735255122198
 21
6.841871970357104
 31
0.0
  0
LINE
  5
35F3
330
1F
100
AcDbEntity
  8
0
100
AcDbLine
 10
11.88715570076337
 20
6.73329908209695
 30
0.0
 11
11.90111555685414
 21
6.789640668566843
 31
0.0
  0
LINE
  5
35F4
330
1F
100
AcDbEntity
  8
0
100
AcDbLine
 10
11.86466491119195
 20
6.679788182903672
 30
0.0
 11
11.88715570076337
 21
6.73329908209695
 31
0.0
  0
LINE
  5
35F5
330
1F
100
AcDbEntity
  8
0
100
AcDbLine
 10
11.79643934094262
 20
6.586292248555044
 30
0.0
 11
11.8341824835955
 21
6.630391082221074
 31
0.0
  0
LINE
  5
35F6
330
1F
100
AcDbEntity
  8
0
100
AcDbLine
 10
11.70294340659399
 20
6.518066678305721
 30
0.0
 11
11.75234050727659
 21
6.54854910590217
 31
0.0
  0
LINE
  5
35F7
330
1F
100
AcDbEntity
  8
0
100
AcDbLine
 10
11.53631897639581
 20
6.476008400881061
 30
0.0
 11
11.52649208753594
 21
6.472802352336451
 31
0.0
  0
LINE
  5
35F8
330
1F
100
AcDbEntity
  8
0
100
AcDbLine
 10
11.50069853661332
 20
6.455915545338205
 30
0.0
 11
11.49382979327869
 21
6.448191112871183
 31
0.0
  0
LINE
  5
35F9
330
1F
100
AcDbEntity
  8
0
100
AcDbLine
 10
11.48803876071513
 20
6.439628961635511
 30
0.0
 11
11.48342642533952
 21
6.430378401959604
 31
0.0
  0
LINE
  5
35FA
330
1F
100
AcDbEntity
  8
0
100
AcDbLine
 10
11.48342642533952
 20
6.430378401959604
 30
0.0
 11
11.48007321896048
 21
6.420600748922488
 31
0.0
  0
LINE
  5
35FB
330
1F
100
AcDbEntity
  8
0
100
AcDbLine
 10
11.47803761617533
 20
6.410466509274851
 30
0.0
 11
11.47735511466591
 21
6.40015240807192
 31
0.0
  0
LINE
  5
35FC
330
1F
100
AcDbEntity
  8
0
100
AcDbLine
 10
12.1683875013172
 20
6.850678896164602
 30
0.0
 11
12.16892569506591
 21
6.84246764632223
 31
0.0
  0
LINE
  5
35FD
330
1F
100
AcDbEntity
  8
0
100
AcDbLine
 10
12.16049751016795
 20
6.873922060576992
 30
0.0
 11
12.1641370456306
 21
6.866541812742323
 31
0.0
  0
LINE
  5
35FE
330
1F
100
AcDbEntity
  8
0
100
AcDbLine
 10
12.14431333489711
 20
6.89237657555407
 30
0.0
 11
12.15050012579197
 21
6.886950905557817
 31
0.0
  0
LINE
  5
35FF
330
1F
100
AcDbEntity
  8
0
100
AcDbLine
 10
10.06802405525125
 20
6.35486865091001
 30
0.0
 11
10.06802405525125
 21
6.357765032187677
 31
0.0
  0
LINE
  5
3600
330
1F
100
AcDbEntity
  8
0
100
AcDbLine
 10
9.251765007506371
 20
6.35486865091001
 30
0.0
 11
9.251765007506371
 21
6.357765032187677
 31
0.0
  0
LINE
  5
3601
330
1F
100
AcDbEntity
  8
0
100
AcDbLine
 10
9.162965007506372
 20
6.358298825357787
 30
0.0
 11
9.162965007506372
 21
7.152330670570115
 31
0.0
  0
LINE
  5
3602
330
1F
100
AcDbEntity
  8
0
100
AcDbLine
 10
12.15451971612322
 20
6.882367441233657
 30
0.0
 11
12.15451971612323
 21
8.077505495676495
 31
0.0
  0
LINE
  5
3603
330
1F
100
AcDbEntity
  8
0
100
AcDbLine
 10
12.15451971612323
 20
8.097334392903972
 30
0.0
 11
12.15451971612323
 21
8.140352546755647
 31
0.0
  0
LINE
  5
3604
330
1F
100
AcDbEntity
  8
0
100
AcDbLine
 10
12.05451971612323
 20
6.905376474831756
 30
0.0
 11
12.05451971612323
 21
8.140352546755647
 31
0.0
  0
LINE
  5
3605
330
1F
100
AcDbEntity
  8
0
100
AcDbLine
 10
10.28922863431608
 20
6.258674253481452
 30
0.0
 11
10.28717528477644
 21
6.2588799093122
 31
0.0
  0
LINE
  5
3606
330
1F
100
AcDbEntity
  8
0
100
AcDbLine
 10
10.291794682439
 20
6.257424253481452
 30
0.0
 11
10.29213250908331
 21
6.257759189971991
 31
0.0
  0
LINE
  5
3607
330
1F
100
AcDbEntity
  8
0
100
AcDbLine
 10
10.58931494423086
 20
7.969856074184702
 30
0.0
 11
10.54521611056483
 21
7.932112931531829
 31
0.0
  0
LINE
  5
3608
330
1F
100
AcDbEntity
  8
0
100
AcDbLine
 10
10.82448212063327
 20
8.050075776019033
 30
0.0
 11
10.83313024077068
 21
8.055737622892937
 31
0.0
  0
LINE
  5
3609
330
1F
100
AcDbEntity
  8
0
100
AcDbLine
 10
10.81345261774693
 20
8.302261672955026
 30
0.0
 11
10.82195016686464
 21
8.299377143717119
 31
0.0
  0
LINE
  5
360A
330
1F
100
AcDbEntity
  8
0
100
AcDbLine
 10
10.23563858495107
 20
7.613028705255116
 30
0.0
 11
10.22897305319669
 21
7.613465587287803
 31
0.0
  0
LINE
  5
360B
330
1F
100
AcDbEntity
  8
0
100
AcDbLine
 10
10.35613328570117
 20
8.3027946969449
 30
0.0
 11
10.32907167465907
 21
8.29741180782741
 31
0.0
  0
LINE
  5
360C
330
1F
100
AcDbEntity
  8
0
100
AcDbLine
 10
10.42799622196939
 20
7.660004213488701
 30
0.0
 11
10.42372901068819
 21
7.652245158005829
 31
0.0
  0
LINE
  5
360D
330
1F
100
AcDbEntity
  8
0
100
AcDbLine
 10
10.39287258352481
 20
7.62101907946133
 30
0.0
 11
10.38516489199704
 21
7.616659776143432
 31
0.0
  0
LINE
  5
360E
330
1F
100
AcDbEntity
  8
0
100
AcDbLine
 10
10.78484963485814
 20
8.039985947207377
 30
0.0
 11
10.74856453057663
 21
8.036789147443348
 31
0.0
  0
LINE
  5
360F
330
1F
100
AcDbEntity
  8
0
100
AcDbLine
 10
10.42372901068819
 20
7.652245158005829
 30
0.0
 11
10.41876548507473
 21
7.644911983550711
 31
0.0
  0
LINE
  5
3610
330
1F
100
AcDbEntity
  8
0
100
AcDbLine
 10
10.32907167465907
 20
8.29741180782741
 30
0.0
 11
10.30294418747054
 21
8.288542721027864
 31
0.0
  0
LINE
  5
3611
330
1F
100
AcDbEntity
  8
0
100
AcDbLine
 10
10.44053989465331
 20
7.728764511520029
 30
0.0
 11
10.43747163639145
 21
7.693938410665417
 31
0.0
  0
LINE
  5
3612
330
1F
100
AcDbEntity
  8
0
100
AcDbLine
 10
10.23451154853918
 20
8.291622319042303
 30
0.0
 11
10.22897305319669
 21
8.285306875497116
 31
0.0
  0
LINE
  5
3613
330
1F
100
AcDbEntity
  8
0
100
AcDbLine
 10
10.41314781775295
 20
7.638066996482317
 30
0.0
 11
10.40692373926558
 21
7.631768355272676
 31
0.0
  0
LINE
  5
3614
330
1F
100
AcDbEntity
  8
0
100
AcDbLine
 10
10.43430290028547
 20
7.676533209729768
 30
0.0
 11
10.43153086253312
 21
7.668123225139755
 31
0.0
  0
LINE
  5
3615
330
1F
100
AcDbEntity
  8
0
100
AcDbLine
 10
10.78484963485814
 20
8.039985947207377
 30
0.0
 11
10.79517281939895
 21
8.04051353878345
 31
0.0
  0
LINE
  5
3616
330
1F
100
AcDbEntity
  8
0
100
AcDbLine
 10
10.84420679286077
 20
8.284505741674347
 30
0.0
 11
10.85012362164766
 21
8.277758891517505
 31
0.0
  0
LINE
  5
3617
330
1F
100
AcDbEntity
  8
0
100
AcDbLine
 10
10.383665988929
 20
8.304599285655118
 30
0.0
 11
10.35613328570117
 21
8.3027946969449
 31
0.0
  0
LINE
  5
3618
330
1F
100
AcDbEntity
  8
0
100
AcDbLine
 10
10.82195016686464
 20
8.299377143717119
 30
0.0
 11
10.8299985116539
 21
8.295408139297174
 31
0.0
  0
LINE
  5
3619
330
1F
100
AcDbEntity
  8
0
100
AcDbLine
 10
10.43747163639145
 20
7.693938410665417
 30
0.0
 11
10.43628878259173
 21
7.685162711776257
 31
0.0
  0
LINE
  5
361A
330
1F
100
AcDbEntity
  8
0
100
AcDbLine
 10
10.85012362164766
 20
8.277758891517505
 30
0.0
 11
10.8551091904836
 21
8.270297460467475
 31
0.0
  0
LINE
  5
361B
330
1F
100
AcDbEntity
  8
0
100
AcDbLine
 10
10.41876548507473
 20
7.644911983550711
 30
0.0
 11
10.41314781775295
 21
7.638066996482317
 31
0.0
  0
LINE
  5
361C
330
1F
100
AcDbEntity
  8
0
100
AcDbLine
 10
10.40014613253132
 20
7.626069576363077
 30
0.0
 11
10.39287258352481
 21
7.62101907946133
 31
0.0
  0
LINE
  5
361D
330
1F
100
AcDbEntity
  8
0
100
AcDbLine
 10
10.80465125972214
 20
8.304012371915895
 30
0.0
 11
10.81345261774693
 21
8.302261672955026
 31
0.0
  0
LINE
  5
361E
330
1F
100
AcDbEntity
  8
0
100
AcDbLine
 10
10.40692373926558
 20
7.631768355272676
 30
0.0
 11
10.40014613253132
 21
7.626069576363077
 31
0.0
  0
LINE
  5
361F
330
1F
100
AcDbEntity
  8
0
100
AcDbLine
 10
10.50747296791196
 20
7.888014097865797
 30
0.0
 11
10.47699054031551
 21
7.8386169971832
 31
0.0
  0
LINE
  5
3620
330
1F
100
AcDbEntity
  8
0
100
AcDbLine
 10
10.83313024077068
 20
8.055737622892937
 30
0.0
 11
10.84095691489413
 21
8.062489634748667
 31
0.0
  0
LINE
  5
3621
330
1F
100
AcDbEntity
  8
0
100
AcDbLine
 10
10.69222294410673
 20
8.02282929135258
 30
0.0
 11
10.63871204491346
 21
8.000338501781151
 31
0.0
  0
LINE
  5
3622
330
1F
100
AcDbEntity
  8
0
100
AcDbLine
 10
10.86158223254697
 20
8.097804431164384
 30
0.0
 11
10.86361783533212
 21
8.107938670812021
 31
0.0
  0
LINE
  5
3623
330
1F
100
AcDbEntity
  8
0
100
AcDbLine
 10
10.74856453057663
 20
8.036789147443348
 30
0.0
 11
10.69222294410673
 21
8.02282929135258
 31
0.0
  0
LINE
  5
3624
330
1F
100
AcDbEntity
  8
0
100
AcDbLine
 10
10.83745994270393
 20
8.290422570461236
 30
0.0
 11
10.84420679286077
 21
8.284505741674347
 31
0.0
  0
LINE
  5
3625
330
1F
100
AcDbEntity
  8
0
100
AcDbLine
 10
10.86196272414145
 20
8.253751566560509
 30
0.0
 11
10.86371342310232
 21
8.244950208535712
 31
0.0
  0
LINE
  5
3626
330
1F
100
AcDbEntity
  8
0
100
AcDbLine
 10
10.81516336397152
 20
8.045602827750421
 30
0.0
 11
10.82448212063327
 21
8.050075776019033
 31
0.0
  0
LINE
  5
3627
330
1F
100
AcDbEntity
  8
0
100
AcDbLine
 10
10.79517281939895
 20
8.04051353878345
 30
0.0
 11
10.80533647511164
 21
8.042396779205812
 31
0.0
  0
LINE
  5
3628
330
1F
100
AcDbEntity
  8
0
100
AcDbLine
 10
10.43153086253312
 20
7.668123225139755
 30
0.0
 11
10.42799622196939
 21
7.660004213488701
 31
0.0
  0
LINE
  5
3629
330
1F
100
AcDbEntity
  8
0
100
AcDbLine
 10
10.86371342310232
 20
8.244950208535712
 30
0.0
 11
10.86430033684154
 21
8.235995635279831
 31
0.0
  0
LINE
  5
362A
330
1F
100
AcDbEntity
  8
0
100
AcDbLine
 10
10.79569668646626
 20
8.304599285655118
 30
0.0
 11
10.80465125972214
 21
8.304012371915895
 31
0.0
  0
LINE
  5
362B
330
1F
100
AcDbEntity
  8
0
100
AcDbLine
 10
10.85907819490354
 20
8.262249115678219
 30
0.0
 11
10.86196272414145
 21
8.253751566560509
 31
0.0
  0
LINE
  5
362C
330
1F
100
AcDbEntity
  8
0
100
AcDbLine
 10
10.84782565822877
 20
8.070214067215689
 30
0.0
 11
10.85361669079232
 21
8.078776218451361
 31
0.0
  0
LINE
  5
362D
330
1F
100
AcDbEntity
  8
0
100
AcDbLine
 10
10.8299985116539
 20
8.295408139297174
 30
0.0
 11
10.83745994270393
 21
8.290422570461236
 31
0.0
  0
LINE
  5
362E
330
1F
100
AcDbEntity
  8
0
100
AcDbLine
 10
10.38516489199704
 20
7.616659776143432
 30
0.0
 11
10.37708854639345
 21
7.613028705255116
 31
0.0
  0
LINE
  5
362F
330
1F
100
AcDbEntity
  8
0
100
AcDbLine
 10
10.43628878259173
 20
7.685162711776257
 30
0.0
 11
10.43430290028547
 21
7.676533209729768
 31
0.0
  0
LINE
  5
3630
330
1F
100
AcDbEntity
  8
0
100
AcDbLine
 10
10.45449975074408
 20
7.785106097989922
 30
0.0
 11
10.44053989465331
 21
7.728764511520029
 31
0.0
  0
LINE
  5
3631
330
1F
100
AcDbEntity
  8
0
100
AcDbLine
 10
10.47699054031551
 20
7.8386169971832
 30
0.0
 11
10.45449975074408
 21
7.785106097989922
 31
0.0
  0
LINE
  5
3632
330
1F
100
AcDbEntity
  8
0
100
AcDbLine
 10
10.54521611056483
 20
7.932112931531829
 30
0.0
 11
10.50747296791196
 21
7.888014097865797
 31
0.0
  0
LINE
  5
3633
330
1F
100
AcDbEntity
  8
0
100
AcDbLine
 10
10.63871204491346
 20
8.000338501781151
 30
0.0
 11
10.58931494423086
 21
7.969856074184702
 31
0.0
  0
LINE
  5
3634
330
1F
100
AcDbEntity
  8
0
100
AcDbLine
 10
10.80533647511164
 20
8.042396779205812
 30
0.0
 11
10.81516336397152
 21
8.045602827750421
 31
0.0
  0
LINE
  5
3635
330
1F
100
AcDbEntity
  8
0
100
AcDbLine
 10
10.84095691489413
 20
8.062489634748667
 30
0.0
 11
10.84782565822877
 21
8.070214067215689
 31
0.0
  0
LINE
  5
3636
330
1F
100
AcDbEntity
  8
0
100
AcDbLine
 10
10.85361669079232
 20
8.078776218451361
 30
0.0
 11
10.85822902616794
 21
8.088026778127268
 31
0.0
  0
LINE
  5
3637
330
1F
100
AcDbEntity
  8
0
100
AcDbLine
 10
10.85822902616794
 20
8.088026778127268
 30
0.0
 11
10.86158223254697
 21
8.097804431164384
 31
0.0
  0
LINE
  5
3638
330
1F
100
AcDbEntity
  8
0
100
AcDbLine
 10
10.86361783533212
 20
8.107938670812021
 30
0.0
 11
10.86430033684154
 21
8.118252772014951
 31
0.0
  0
LINE
  5
3639
330
1F
100
AcDbEntity
  8
0
100
AcDbLine
 10
10.79569668646626
 20
8.304599285655118
 30
0.0
 11
10.383665988929
 21
8.304599285655118
 31
0.0
  0
LINE
  5
363A
330
1F
100
AcDbEntity
  8
0
100
AcDbLine
 10
10.24874675343689
 20
6.431289179862131
 30
0.0
 11
10.24874675343689
 21
7.613028705255119
 31
0.0
  0
LINE
  5
363B
330
1F
100
AcDbEntity
  8
0
100
AcDbLine
 10
10.16339141437756
 20
7.152330670570121
 30
0.0
 11
10.16339141437756
 21
6.357362301602096
 31
0.0
  0
LINE
  5
363C
330
1F
100
AcDbEntity
  8
0
100
AcDbLine
 10
10.27520748662308
 20
6.258674253481452
 30
0.0
 11
10.27363189610556
 21
6.258406237584747
 31
0.0
  0
LINE
  5
363D
330
1F
100
AcDbEntity
  8
0
100
AcDbLine
 10
10.28717528477644
 20
6.2588799093122
 30
0.0
 11
10.2847841085925
 21
6.25900918997199
 31
0.0
  0
LINE
  5
363E
330
1F
100
AcDbEntity
  8
0
100
AcDbLine
 10
10.27264143850015
 20
6.25809412646253
 30
0.0
 11
10.27230361185584
 21
6.257759189971991
 31
0.0
  0
LINE
  5
363F
330
1F
100
AcDbEntity
  8
0
100
AcDbLine
 10
10.2772608361627
 20
6.2588799093122
 30
0.0
 11
10.27520748662308
 21
6.258674253481452
 31
0.0
  0
LINE
  5
3640
330
1F
100
AcDbEntity
  8
0
100
AcDbLine
 10
10.29080422483359
 20
6.257112142359234
 30
0.0
 11
10.291794682439
 21
6.257424253481452
 31
0.0
  0
LINE
  5
3641
330
1F
100
AcDbEntity
  8
0
100
AcDbLine
 10
10.28922863431608
 20
6.25684412646253
 30
0.0
 11
10.29080422483359
 21
6.257112142359234
 31
0.0
  0
LINE
  5
3642
330
1F
100
AcDbEntity
  8
0
100
AcDbLine
 10
10.291704752152
 20
8.283423814411477
 30
0.0
 11
10.2919901975747
 21
8.283140811013938
 31
0.0
  0
LINE
  5
3643
330
1F
100
AcDbEntity
  8
0
100
AcDbLine
 10
10.29303303640173
 20
8.284070862024234
 30
0.0
 11
10.29204257879631
 21
8.283758750902016
 31
0.0
  0
LINE
  5
3644
330
1F
100
AcDbEntity
  8
0
100
AcDbLine
 10
10.28221806046958
 20
6.259053285197503
 30
0.0
 11
10.27965201234665
 21
6.25900918997199
 31
0.0
  0
LINE
  5
3645
330
1F
100
AcDbEntity
  8
0
100
AcDbLine
 10
10.27363189610556
 20
6.258406237584747
 30
0.0
 11
10.27264143850015
 21
6.25809412646253
 31
0.0
  0
LINE
  5
3646
330
1F
100
AcDbEntity
  8
0
100
AcDbLine
 10
10.2772608361627
 20
6.256638470631781
 30
0.0
 11
10.27965201234665
 21
6.256509189971991
 31
0.0
  0
LINE
  5
3647
330
1F
100
AcDbEntity
  8
0
100
AcDbLine
 10
10.28221806046958
 20
6.256465094746478
 30
0.0
 11
10.2847841085925
 21
6.256509189971991
 31
0.0
  0
LINE
  5
3648
330
1F
100
AcDbEntity
  8
0
100
AcDbLine
 10
10.27965201234665
 20
6.25900918997199
 30
0.0
 11
10.2772608361627
 21
6.2588799093122
 31
0.0
  0
LINE
  5
3649
330
1F
100
AcDbEntity
  8
0
100
AcDbLine
 10
10.27230361185584
 20
6.257759189971991
 30
0.0
 11
10.27264143850015
 21
6.257424253481452
 31
0.0
  0
LINE
  5
364A
330
1F
100
AcDbEntity
  8
0
100
AcDbLine
 10
10.27264143850015
 20
6.257424253481452
 30
0.0
 11
10.27363189610556
 21
6.257112142359234
 31
0.0
  0
LINE
  5
364B
330
1F
100
AcDbEntity
  8
0
100
AcDbLine
 10
10.27363189610556
 20
6.257112142359234
 30
0.0
 11
10.27520748662308
 21
6.25684412646253
 31
0.0
  0
LINE
  5
364C
330
1F
100
AcDbEntity
  8
0
100
AcDbLine
 10
10.27520748662308
 20
6.25684412646253
 30
0.0
 11
10.2772608361627
 21
6.256638470631781
 31
0.0
  0
LINE
  5
364D
330
1F
100
AcDbEntity
  8
0
100
AcDbLine
 10
10.27965201234665
 20
6.256509189971991
 30
0.0
 11
10.28221806046958
 21
6.256465094746478
 31
0.0
  0
LINE
  5
364E
330
1F
100
AcDbEntity
  8
0
100
AcDbLine
 10
10.2847841085925
 20
6.256509189971991
 30
0.0
 11
10.28717528477644
 21
6.256638470631781
 31
0.0
  0
LINE
  5
364F
330
1F
100
AcDbEntity
  8
0
100
AcDbLine
 10
10.28717528477644
 20
6.256638470631781
 30
0.0
 11
10.28922863431608
 21
6.25684412646253
 31
0.0
  0
LINE
  5
3650
330
1F
100
AcDbEntity
  8
0
100
AcDbLine
 10
10.29213250908331
 20
6.257759189971991
 30
0.0
 11
10.291794682439
 21
6.25809412646253
 31
0.0
  0
LINE
  5
3651
330
1F
100
AcDbEntity
  8
0
100
AcDbLine
 10
10.291794682439
 20
6.25809412646253
 30
0.0
 11
10.29080422483359
 21
6.258406237584747
 31
0.0
  0
LINE
  5
3652
330
1F
100
AcDbEntity
  8
0
100
AcDbLine
 10
10.2847841085925
 20
6.25900918997199
 30
0.0
 11
10.28221806046958
 21
6.259053285197503
 31
0.0
  0
LINE
  5
3653
330
1F
100
AcDbEntity
  8
0
100
AcDbLine
 10
9.600099573384124
 20
7.152330670570115
 30
0.0
 11
9.593612365881064
 21
7.153693637518552
 31
0.0
  0
LINE
  5
3654
330
1F
100
AcDbEntity
  8
0
100
AcDbLine
 10
9.593612365881064
 20
7.153693637518552
 30
0.0
 11
9.58865940729472
 21
7.156967703621686
 31
0.0
  0
LINE
  5
3655
330
1F
100
AcDbEntity
  8
0
100
AcDbLine
 10
9.602628748838895
 20
7.152862052146859
 30
0.0
 11
9.600099573384124
 21
7.152330670570115
 31
0.0
  0
LINE
  5
3656
330
1F
100
AcDbEntity
  8
0
100
AcDbLine
 10
9.074717081816181
 20
7.152330670570115
 30
0.0
 11
9.068229874313121
 21
7.153693637518552
 31
0.0
  0
LINE
  5
3657
330
1F
100
AcDbEntity
  8
0
100
AcDbLine
 10
9.068229874313121
 20
7.153693637518552
 30
0.0
 11
9.063276915726778
 21
7.156967703621686
 31
0.0
  0
LINE
  5
3658
330
1F
100
AcDbEntity
  8
0
100
AcDbLine
 10
9.60537114365497
 20
7.152330670570121
 30
0.0
 11
9.612405248067869
 21
7.153693637518559
 31
0.0
  0
LINE
  5
3659
330
1F
100
AcDbEntity
  8
0
100
AcDbLine
 10
9.612405248067869
 20
7.153693637518559
 30
0.0
 11
9.617775760392717
 21
7.156967703621686
 31
0.0
  0
LINE
  5
365A
330
1F
100
AcDbEntity
  8
0
100
AcDbLine
 10
9.592966526917219
 20
7.156967703621686
 30
0.0
 11
9.598337039242068
 21
7.153693637518559
 31
0.0
  0
LINE
  5
365B
330
1F
100
AcDbEntity
  8
0
100
AcDbLine
 10
10.17504542964859
 20
7.152330670570121
 30
0.0
 11
10.18207953406149
 21
7.153693637518557
 31
0.0
  0
LINE
  5
365C
330
1F
100
AcDbEntity
  8
0
100
AcDbLine
 10
10.18207953406149
 20
7.153693637518557
 30
0.0
 11
10.18745004638634
 21
7.156967703621686
 31
0.0
  0
LINE
  5
365D
330
1F
100
AcDbEntity
  8
0
100
AcDbLine
 10
9.646063927104126
 20
7.156967703621686
 30
0.0
 11
9.646063927104126
 21
8.296967703621687
 31
0.0
  0
LINE
  5
365E
330
1F
100
AcDbEntity
  8
0
100
AcDbLine
 10
9.624850723668529
 20
7.156967703621686
 30
0.0
 11
9.624850723668529
 21
8.296967703621687
 31
0.0
  0
LINE
  5
365F
330
1F
100
AcDbEntity
  8
0
100
AcDbLine
 10
9.026747988335795
 20
8.296967703621687
 30
0.0
 11
9.026747988335795
 21
7.156967703621688
 31
0.0
  0
LINE
  5
3660
330
1F
100
AcDbEntity
  8
0
100
AcDbLine
 10
9.584843855098529
 20
7.226568153821796
 30
0.0
 11
9.588504109136373
 21
7.225886670347575
 31
0.0
  0
LINE
  5
3661
330
1F
100
AcDbEntity
  8
0
100
AcDbLine
 10
9.588504109136373
 20
7.225886670347575
 30
0.0
 11
9.591914922910394
 21
7.223888661897484
 31
0.0
  0
LINE
  5
3662
330
1F
100
AcDbEntity
  8
0
100
AcDbLine
 10
9.591914922910394
 20
7.223888661897484
 30
0.0
 11
9.594843855098527
 21
7.220710289445527
 31
0.0
  0
LINE
  5
3663
330
1F
100
AcDbEntity
  8
0
100
AcDbLine
 10
9.594843855098527
 20
7.220710289445527
 30
0.0
 11
9.597091303812444
 21
7.216568153821796
 31
0.0
  0
LINE
  5
3664
330
1F
100
AcDbEntity
  8
0
100
AcDbLine
 10
9.597091303812444
 20
7.216568153821796
 30
0.0
 11
9.598504109136374
 21
7.211744534723845
 31
0.0
  0
LINE
  5
3665
330
1F
100
AcDbEntity
  8
0
100
AcDbLine
 10
9.598504109136374
 20
7.211744534723845
 30
0.0
 11
9.598985990722258
 21
7.206568153821795
 31
0.0
  0
LINE
  5
3666
330
1F
100
AcDbEntity
  8
0
100
AcDbLine
 10
9.598985990722258
 20
7.206568153821795
 30
0.0
 11
9.598504109136374
 21
7.201391772919745
 31
0.0
  0
LINE
  5
3667
330
1F
100
AcDbEntity
  8
0
100
AcDbLine
 10
9.598504109136374
 20
7.201391772919745
 30
0.0
 11
9.597091303812444
 21
7.196568153821797
 31
0.0
  0
LINE
  5
3668
330
1F
100
AcDbEntity
  8
0
100
AcDbLine
 10
9.597091303812444
 20
7.196568153821797
 30
0.0
 11
9.594843855098527
 21
7.192426018198064
 31
0.0
  0
LINE
  5
3669
330
1F
100
AcDbEntity
  8
0
100
AcDbLine
 10
9.594843855098527
 20
7.192426018198064
 30
0.0
 11
9.591914922910394
 21
7.189247645746107
 31
0.0
  0
LINE
  5
366A
330
1F
100
AcDbEntity
  8
0
100
AcDbLine
 10
9.591914922910394
 20
7.189247645746107
 30
0.0
 11
9.588504109136373
 21
7.187249637296014
 31
0.0
  0
LINE
  5
366B
330
1F
100
AcDbEntity
  8
0
100
AcDbLine
 10
9.588504109136373
 20
7.187249637296014
 30
0.0
 11
9.584843855098529
 21
7.186568153821795
 31
0.0
  0
LINE
  5
366C
330
1F
100
AcDbEntity
  8
0
100
AcDbLine
 10
9.056636899982031
 20
7.228523948574014
 30
0.0
 11
9.060297154019874
 21
7.227842465099795
 31
0.0
  0
LINE
  5
366D
330
1F
100
AcDbEntity
  8
0
100
AcDbLine
 10
9.066636899982029
 20
7.222666084197745
 30
0.0
 11
9.068884348695945
 21
7.218523948574015
 31
0.0
  0
LINE
  5
366E
330
1F
100
AcDbEntity
  8
0
100
AcDbLine
 10
9.060297154019874
 20
7.189205432048234
 30
0.0
 11
9.056636899982027
 21
7.188523948574015
 31
0.0
  0
LINE
  5
366F
330
1F
100
AcDbEntity
  8
0
100
AcDbLine
 10
9.060297154019874
 20
7.227842465099795
 30
0.0
 11
9.063707967793895
 21
7.225844456649703
 31
0.0
  0
LINE
  5
3670
330
1F
100
AcDbEntity
  8
0
100
AcDbLine
 10
9.063707967793895
 20
7.225844456649703
 30
0.0
 11
9.066636899982029
 21
7.222666084197745
 31
0.0
  0
LINE
  5
3671
330
1F
100
AcDbEntity
  8
0
100
AcDbLine
 10
9.068884348695945
 20
7.218523948574015
 30
0.0
 11
9.070297154019872
 21
7.213700329476065
 31
0.0
  0
LINE
  5
3672
330
1F
100
AcDbEntity
  8
0
100
AcDbLine
 10
9.070297154019872
 20
7.213700329476065
 30
0.0
 11
9.07077903560576
 21
7.208523948574015
 31
0.0
  0
LINE
  5
3673
330
1F
100
AcDbEntity
  8
0
100
AcDbLine
 10
9.07077903560576
 20
7.208523948574015
 30
0.0
 11
9.070297154019872
 21
7.203347567671965
 31
0.0
  0
LINE
  5
3674
330
1F
100
AcDbEntity
  8
0
100
AcDbLine
 10
9.070297154019872
 20
7.203347567671965
 30
0.0
 11
9.068884348695945
 21
7.198523948574015
 31
0.0
  0
LINE
  5
3675
330
1F
100
AcDbEntity
  8
0
100
AcDbLine
 10
9.068884348695945
 20
7.198523948574015
 30
0.0
 11
9.066636899982029
 21
7.194381812950284
 31
0.0
  0
LINE
  5
3676
330
1F
100
AcDbEntity
  8
0
100
AcDbLine
 10
9.066636899982029
 20
7.194381812950284
 30
0.0
 11
9.063707967793895
 21
7.191203440498325
 31
0.0
  0
LINE
  5
3677
330
1F
100
AcDbEntity
  8
0
100
AcDbLine
 10
9.063707967793895
 20
7.191203440498325
 30
0.0
 11
9.060297154019874
 21
7.189205432048234
 31
0.0
  0
LINE
  5
3678
330
1F
100
AcDbEntity
  8
0
100
AcDbLine
 10
9.056636899982027
 20
8.252523948574015
 30
0.0
 11
9.06029715401987
 21
8.251842465099795
 31
0.0
  0
LINE
  5
3679
330
1F
100
AcDbEntity
  8
0
100
AcDbLine
 10
9.06029715401987
 20
8.251842465099795
 30
0.0
 11
9.063707967793892
 21
8.249844456649704
 31
0.0
  0
LINE
  5
367A
330
1F
100
AcDbEntity
  8
0
100
AcDbLine
 10
9.063707967793892
 20
8.249844456649704
 30
0.0
 11
9.066636899982029
 21
8.246666084197745
 31
0.0
  0
LINE
  5
367B
330
1F
100
AcDbEntity
  8
0
100
AcDbLine
 10
9.066636899982029
 20
8.246666084197745
 30
0.0
 11
9.068884348695945
 21
8.242523948574016
 31
0.0
  0
LINE
  5
367C
330
1F
100
AcDbEntity
  8
0
100
AcDbLine
 10
9.068884348695945
 20
8.242523948574016
 30
0.0
 11
9.070297154019872
 21
8.237700329476064
 31
0.0
  0
LINE
  5
367D
330
1F
100
AcDbEntity
  8
0
100
AcDbLine
 10
9.070297154019872
 20
8.237700329476064
 30
0.0
 11
9.07077903560576
 21
8.232523948574014
 31
0.0
  0
LINE
  5
367E
330
1F
100
AcDbEntity
  8
0
100
AcDbLine
 10
9.07077903560576
 20
8.232523948574014
 30
0.0
 11
9.070297154019872
 21
8.227347567671964
 31
0.0
  0
LINE
  5
367F
330
1F
100
AcDbEntity
  8
0
100
AcDbLine
 10
9.070297154019872
 20
8.227347567671964
 30
0.0
 11
9.068884348695942
 21
8.222523948574014
 31
0.0
  0
LINE
  5
3680
330
1F
100
AcDbEntity
  8
0
100
AcDbLine
 10
9.068884348695942
 20
8.222523948574014
 30
0.0
 11
9.066636899982029
 21
8.218381812950283
 31
0.0
  0
LINE
  5
3681
330
1F
100
AcDbEntity
  8
0
100
AcDbLine
 10
9.066636899982029
 20
8.218381812950283
 30
0.0
 11
9.063707967793892
 21
8.215203440498324
 31
0.0
  0
LINE
  5
3682
330
1F
100
AcDbEntity
  8
0
100
AcDbLine
 10
9.063707967793892
 20
8.215203440498324
 30
0.0
 11
9.06029715401987
 21
8.213205432048233
 31
0.0
  0
LINE
  5
3683
330
1F
100
AcDbEntity
  8
0
100
AcDbLine
 10
9.06029715401987
 20
8.213205432048233
 30
0.0
 11
9.056636899982027
 21
8.212523948574014
 31
0.0
  0
LINE
  5
3684
330
1F
100
AcDbEntity
  8
0
100
AcDbLine
 10
9.584843855098529
 20
8.264568153821796
 30
0.0
 11
9.588504109136373
 21
8.263886670347577
 31
0.0
  0
LINE
  5
3685
330
1F
100
AcDbEntity
  8
0
100
AcDbLine
 10
9.588504109136373
 20
8.263886670347577
 30
0.0
 11
9.59191492291039
 21
8.261888661897486
 31
0.0
  0
LINE
  5
3686
330
1F
100
AcDbEntity
  8
0
100
AcDbLine
 10
9.59191492291039
 20
8.261888661897486
 30
0.0
 11
9.594843855098527
 21
8.258710289445527
 31
0.0
  0
LINE
  5
3687
330
1F
100
AcDbEntity
  8
0
100
AcDbLine
 10
9.594843855098527
 20
8.258710289445527
 30
0.0
 11
9.597091303812444
 21
8.254568153821796
 31
0.0
  0
LINE
  5
3688
330
1F
100
AcDbEntity
  8
0
100
AcDbLine
 10
9.597091303812444
 20
8.254568153821796
 30
0.0
 11
9.598504109136374
 21
8.249744534723847
 31
0.0
  0
LINE
  5
3689
330
1F
100
AcDbEntity
  8
0
100
AcDbLine
 10
9.598504109136374
 20
8.249744534723847
 30
0.0
 11
9.598985990722258
 21
8.244568153821797
 31
0.0
  0
LINE
  5
368A
330
1F
100
AcDbEntity
  8
0
100
AcDbLine
 10
9.598985990722258
 20
8.244568153821797
 30
0.0
 11
9.598504109136374
 21
8.239391772919747
 31
0.0
  0
LINE
  5
368B
330
1F
100
AcDbEntity
  8
0
100
AcDbLine
 10
9.598504109136374
 20
8.239391772919747
 30
0.0
 11
9.597091303812444
 21
8.234568153821797
 31
0.0
  0
LINE
  5
368C
330
1F
100
AcDbEntity
  8
0
100
AcDbLine
 10
9.597091303812444
 20
8.234568153821797
 30
0.0
 11
9.594843855098527
 21
8.230426018198066
 31
0.0
  0
LINE
  5
368D
330
1F
100
AcDbEntity
  8
0
100
AcDbLine
 10
9.594843855098527
 20
8.230426018198066
 30
0.0
 11
9.59191492291039
 21
8.227247645746107
 31
0.0
  0
LINE
  5
368E
330
1F
100
AcDbEntity
  8
0
100
AcDbLine
 10
9.59191492291039
 20
8.227247645746107
 30
0.0
 11
9.588504109136373
 21
8.225249637296016
 31
0.0
  0
LINE
  5
368F
330
1F
100
AcDbEntity
  8
0
100
AcDbLine
 10
9.588504109136373
 20
8.225249637296016
 30
0.0
 11
9.584843855098526
 21
8.224568153821797
 31
0.0
  0
LINE
  5
3690
330
1F
100
AcDbEntity
  8
0
100
AcDbLine
 10
9.577772787286665
 20
8.264568153821796
 30
0.0
 11
9.581433041324508
 21
8.263886670347577
 31
0.0
  0
LINE
  5
3691
330
1F
100
AcDbEntity
  8
0
100
AcDbLine
 10
9.581433041324508
 20
8.263886670347577
 30
0.0
 11
9.584843855098526
 21
8.261888661897486
 31
0.0
  0
LINE
  5
3692
330
1F
100
AcDbEntity
  8
0
100
AcDbLine
 10
9.584843855098526
 20
8.261888661897486
 30
0.0
 11
9.587772787286663
 21
8.258710289445527
 31
0.0
  0
LINE
  5
3693
330
1F
100
AcDbEntity
  8
0
100
AcDbLine
 10
9.587772787286663
 20
8.258710289445527
 30
0.0
 11
9.590020236000579
 21
8.254568153821796
 31
0.0
  0
LINE
  5
3694
330
1F
100
AcDbEntity
  8
0
100
AcDbLine
 10
9.590020236000579
 20
8.254568153821796
 30
0.0
 11
9.59143304132451
 21
8.249744534723847
 31
0.0
  0
LINE
  5
3695
330
1F
100
AcDbEntity
  8
0
100
AcDbLine
 10
9.59143304132451
 20
8.249744534723847
 30
0.0
 11
9.591914922910394
 21
8.244568153821797
 31
0.0
  0
LINE
  5
3696
330
1F
100
AcDbEntity
  8
0
100
AcDbLine
 10
9.591914922910394
 20
8.244568153821797
 30
0.0
 11
9.59143304132451
 21
8.239391772919747
 31
0.0
  0
LINE
  5
3697
330
1F
100
AcDbEntity
  8
0
100
AcDbLine
 10
9.59143304132451
 20
8.239391772919747
 30
0.0
 11
9.590020236000579
 21
8.234568153821797
 31
0.0
  0
LINE
  5
3698
330
1F
100
AcDbEntity
  8
0
100
AcDbLine
 10
9.590020236000579
 20
8.234568153821797
 30
0.0
 11
9.587772787286663
 21
8.230426018198066
 31
0.0
  0
LINE
  5
3699
330
1F
100
AcDbEntity
  8
0
100
AcDbLine
 10
9.587772787286663
 20
8.230426018198066
 30
0.0
 11
9.584843855098526
 21
8.227247645746107
 31
0.0
  0
LINE
  5
369A
330
1F
100
AcDbEntity
  8
0
100
AcDbLine
 10
9.584843855098526
 20
8.227247645746107
 30
0.0
 11
9.581433041324508
 21
8.225249637296016
 31
0.0
  0
LINE
  5
369B
330
1F
100
AcDbEntity
  8
0
100
AcDbLine
 10
9.581433041324508
 20
8.225249637296016
 30
0.0
 11
9.577772787286665
 21
8.224568153821795
 31
0.0
  0
LINE
  5
369C
330
1F
100
AcDbEntity
  8
0
100
AcDbLine
 10
9.577772787286665
 20
8.224568153821795
 30
0.0
 11
9.574112533248818
 21
8.225249637296016
 31
0.0
  0
LINE
  5
369D
330
1F
100
AcDbEntity
  8
0
100
AcDbLine
 10
9.574112533248818
 20
8.225249637296016
 30
0.0
 11
9.570701719474801
 21
8.227247645746107
 31
0.0
  0
LINE
  5
369E
330
1F
100
AcDbEntity
  8
0
100
AcDbLine
 10
9.570701719474801
 20
8.227247645746107
 30
0.0
 11
9.567772787286664
 21
8.230426018198066
 31
0.0
  0
LINE
  5
369F
330
1F
100
AcDbEntity
  8
0
100
AcDbLine
 10
9.567772787286664
 20
8.230426018198066
 30
0.0
 11
9.565525338572747
 21
8.234568153821795
 31
0.0
  0
LINE
  5
36A0
330
1F
100
AcDbEntity
  8
0
100
AcDbLine
 10
9.565525338572747
 20
8.234568153821795
 30
0.0
 11
9.564112533248813
 21
8.239391772919747
 31
0.0
  0
LINE
  5
36A1
330
1F
100
AcDbEntity
  8
0
100
AcDbLine
 10
9.564112533248813
 20
8.239391772919747
 30
0.0
 11
9.563630651662929
 21
8.244568153821797
 31
0.0
  0
LINE
  5
36A2
330
1F
100
AcDbEntity
  8
0
100
AcDbLine
 10
9.563630651662929
 20
8.244568153821797
 30
0.0
 11
9.564112533248813
 21
8.249744534723847
 31
0.0
  0
LINE
  5
36A3
330
1F
100
AcDbEntity
  8
0
100
AcDbLine
 10
9.564112533248813
 20
8.249744534723847
 30
0.0
 11
9.565525338572747
 21
8.254568153821796
 31
0.0
  0
LINE
  5
36A4
330
1F
100
AcDbEntity
  8
0
100
AcDbLine
 10
9.565525338572747
 20
8.254568153821796
 30
0.0
 11
9.56777278728666
 21
8.258710289445527
 31
0.0
  0
LINE
  5
36A5
330
1F
100
AcDbEntity
  8
0
100
AcDbLine
 10
9.56777278728666
 20
8.258710289445527
 30
0.0
 11
9.570701719474801
 21
8.261888661897486
 31
0.0
  0
LINE
  5
36A6
330
1F
100
AcDbEntity
  8
0
100
AcDbLine
 10
9.570701719474801
 20
8.261888661897486
 30
0.0
 11
9.574112533248818
 21
8.263886670347577
 31
0.0
  0
LINE
  5
36A7
330
1F
100
AcDbEntity
  8
0
100
AcDbLine
 10
9.574112533248818
 20
8.263886670347577
 30
0.0
 11
9.577772787286665
 21
8.264568153821796
 31
0.0
  0
LINE
  5
36A8
330
1F
100
AcDbEntity
  8
0
100
AcDbLine
 10
9.584843855098529
 20
8.264568153821796
 30
0.0
 11
9.577772787286665
 21
8.264568153821796
 31
0.0
  0
LINE
  5
36A9
330
1F
100
AcDbEntity
  8
0
100
AcDbLine
 10
9.584843855098526
 20
8.224568153821797
 30
0.0
 11
9.577772787286665
 21
8.224568153821795
 31
0.0
  0
LINE
  5
36AA
330
1F
100
AcDbEntity
  8
0
100
AcDbLine
 10
9.577772787286665
 20
7.226568153821796
 30
0.0
 11
9.581433041324508
 21
7.225886670347575
 31
0.0
  0
LINE
  5
36AB
330
1F
100
AcDbEntity
  8
0
100
AcDbLine
 10
9.581433041324508
 20
7.225886670347575
 30
0.0
 11
9.584843855098529
 21
7.223888661897484
 31
0.0
  0
LINE
  5
36AC
330
1F
100
AcDbEntity
  8
0
100
AcDbLine
 10
9.584843855098529
 20
7.223888661897484
 30
0.0
 11
9.587772787286663
 21
7.220710289445527
 31
0.0
  0
LINE
  5
36AD
330
1F
100
AcDbEntity
  8
0
100
AcDbLine
 10
9.587772787286663
 20
7.220710289445527
 30
0.0
 11
9.590020236000579
 21
7.216568153821796
 31
0.0
  0
LINE
  5
36AE
330
1F
100
AcDbEntity
  8
0
100
AcDbLine
 10
9.590020236000579
 20
7.216568153821796
 30
0.0
 11
9.59143304132451
 21
7.211744534723845
 31
0.0
  0
LINE
  5
36AF
330
1F
100
AcDbEntity
  8
0
100
AcDbLine
 10
9.59143304132451
 20
7.211744534723845
 30
0.0
 11
9.591914922910394
 21
7.206568153821795
 31
0.0
  0
LINE
  5
36B0
330
1F
100
AcDbEntity
  8
0
100
AcDbLine
 10
9.591914922910394
 20
7.206568153821795
 30
0.0
 11
9.59143304132451
 21
7.201391772919745
 31
0.0
  0
LINE
  5
36B1
330
1F
100
AcDbEntity
  8
0
100
AcDbLine
 10
9.59143304132451
 20
7.201391772919745
 30
0.0
 11
9.590020236000579
 21
7.196568153821797
 31
0.0
  0
LINE
  5
36B2
330
1F
100
AcDbEntity
  8
0
100
AcDbLine
 10
9.590020236000579
 20
7.196568153821797
 30
0.0
 11
9.587772787286663
 21
7.192426018198064
 31
0.0
  0
LINE
  5
36B3
330
1F
100
AcDbEntity
  8
0
100
AcDbLine
 10
9.587772787286663
 20
7.192426018198064
 30
0.0
 11
9.584843855098529
 21
7.189247645746107
 31
0.0
  0
LINE
  5
36B4
330
1F
100
AcDbEntity
  8
0
100
AcDbLine
 10
9.584843855098529
 20
7.189247645746107
 30
0.0
 11
9.581433041324508
 21
7.187249637296014
 31
0.0
  0
LINE
  5
36B5
330
1F
100
AcDbEntity
  8
0
100
AcDbLine
 10
9.581433041324508
 20
7.187249637296014
 30
0.0
 11
9.577772787286665
 21
7.186568153821795
 31
0.0
  0
LINE
  5
36B6
330
1F
100
AcDbEntity
  8
0
100
AcDbLine
 10
9.577772787286665
 20
7.186568153821795
 30
0.0
 11
9.574112533248818
 21
7.187249637296014
 31
0.0
  0
LINE
  5
36B7
330
1F
100
AcDbEntity
  8
0
100
AcDbLine
 10
9.574112533248818
 20
7.187249637296014
 30
0.0
 11
9.570701719474801
 21
7.189247645746107
 31
0.0
  0
LINE
  5
36B8
330
1F
100
AcDbEntity
  8
0
100
AcDbLine
 10
9.570701719474801
 20
7.189247645746107
 30
0.0
 11
9.567772787286667
 21
7.192426018198064
 31
0.0
  0
LINE
  5
36B9
330
1F
100
AcDbEntity
  8
0
100
AcDbLine
 10
9.567772787286667
 20
7.192426018198064
 30
0.0
 11
9.565525338572747
 21
7.196568153821797
 31
0.0
  0
LINE
  5
36BA
330
1F
100
AcDbEntity
  8
0
100
AcDbLine
 10
9.565525338572747
 20
7.196568153821797
 30
0.0
 11
9.564112533248817
 21
7.201391772919745
 31
0.0
  0
LINE
  5
36BB
330
1F
100
AcDbEntity
  8
0
100
AcDbLine
 10
9.564112533248817
 20
7.201391772919745
 30
0.0
 11
9.563630651662929
 21
7.206568153821795
 31
0.0
  0
LINE
  5
36BC
330
1F
100
AcDbEntity
  8
0
100
AcDbLine
 10
9.563630651662929
 20
7.206568153821795
 30
0.0
 11
9.564112533248817
 21
7.211744534723845
 31
0.0
  0
LINE
  5
36BD
330
1F
100
AcDbEntity
  8
0
100
AcDbLine
 10
9.564112533248817
 20
7.211744534723845
 30
0.0
 11
9.565525338572747
 21
7.216568153821794
 31
0.0
  0
LINE
  5
36BE
330
1F
100
AcDbEntity
  8
0
100
AcDbLine
 10
9.565525338572747
 20
7.216568153821794
 30
0.0
 11
9.567772787286664
 21
7.220710289445527
 31
0.0
  0
LINE
  5
36BF
330
1F
100
AcDbEntity
  8
0
100
AcDbLine
 10
9.567772787286664
 20
7.220710289445527
 30
0.0
 11
9.570701719474801
 21
7.223888661897484
 31
0.0
  0
LINE
  5
36C0
330
1F
100
AcDbEntity
  8
0
100
AcDbLine
 10
9.570701719474801
 20
7.223888661897484
 30
0.0
 11
9.574112533248818
 21
7.225886670347577
 31
0.0
  0
LINE
  5
36C1
330
1F
100
AcDbEntity
  8
0
100
AcDbLine
 10
9.574112533248818
 20
7.225886670347577
 30
0.0
 11
9.577772787286665
 21
7.226568153821796
 31
0.0
  0
LINE
  5
36C2
330
1F
100
AcDbEntity
  8
0
100
AcDbLine
 10
9.584843855098529
 20
7.226568153821796
 30
0.0
 11
9.577772787286665
 21
7.226568153821796
 31
0.0
  0
LINE
  5
36C3
330
1F
100
AcDbEntity
  8
0
100
AcDbLine
 10
9.584843855098529
 20
7.186568153821795
 30
0.0
 11
9.577772787286665
 21
7.186568153821795
 31
0.0
  0
LINE
  5
36C4
330
1F
100
AcDbEntity
  8
0
100
AcDbLine
 10
9.049565832170163
 20
7.228523948574014
 30
0.0
 11
9.05322608620801
 21
7.227842465099795
 31
0.0
  0
LINE
  5
36C5
330
1F
100
AcDbEntity
  8
0
100
AcDbLine
 10
9.05322608620801
 20
7.227842465099795
 30
0.0
 11
9.056636899982031
 21
7.225844456649703
 31
0.0
  0
LINE
  5
36C6
330
1F
100
AcDbEntity
  8
0
100
AcDbLine
 10
9.056636899982031
 20
7.225844456649703
 30
0.0
 11
9.059565832170164
 21
7.222666084197745
 31
0.0
  0
LINE
  5
36C7
330
1F
100
AcDbEntity
  8
0
100
AcDbLine
 10
9.059565832170164
 20
7.222666084197745
 30
0.0
 11
9.061813280884081
 21
7.218523948574016
 31
0.0
  0
LINE
  5
36C8
330
1F
100
AcDbEntity
  8
0
100
AcDbLine
 10
9.061813280884081
 20
7.218523948574016
 30
0.0
 11
9.063226086208011
 21
7.213700329476065
 31
0.0
  0
LINE
  5
36C9
330
1F
100
AcDbEntity
  8
0
100
AcDbLine
 10
9.063226086208011
 20
7.213700329476065
 30
0.0
 11
9.063707967793895
 21
7.208523948574015
 31
0.0
  0
LINE
  5
36CA
330
1F
100
AcDbEntity
  8
0
100
AcDbLine
 10
9.063707967793895
 20
7.208523948574015
 30
0.0
 11
9.063226086208008
 21
7.203347567671965
 31
0.0
  0
LINE
  5
36CB
330
1F
100
AcDbEntity
  8
0
100
AcDbLine
 10
9.063226086208008
 20
7.203347567671965
 30
0.0
 11
9.061813280884081
 21
7.198523948574015
 31
0.0
  0
LINE
  5
36CC
330
1F
100
AcDbEntity
  8
0
100
AcDbLine
 10
9.061813280884081
 20
7.198523948574015
 30
0.0
 11
9.059565832170164
 21
7.194381812950284
 31
0.0
  0
LINE
  5
36CD
330
1F
100
AcDbEntity
  8
0
100
AcDbLine
 10
9.059565832170164
 20
7.194381812950284
 30
0.0
 11
9.056636899982027
 21
7.191203440498325
 31
0.0
  0
LINE
  5
36CE
330
1F
100
AcDbEntity
  8
0
100
AcDbLine
 10
9.056636899982027
 20
7.191203440498325
 30
0.0
 11
9.05322608620801
 21
7.189205432048234
 31
0.0
  0
LINE
  5
36CF
330
1F
100
AcDbEntity
  8
0
100
AcDbLine
 10
9.05322608620801
 20
7.189205432048234
 30
0.0
 11
9.049565832170163
 21
7.188523948574015
 31
0.0
  0
LINE
  5
36D0
330
1F
100
AcDbEntity
  8
0
100
AcDbLine
 10
9.049565832170163
 20
7.188523948574015
 30
0.0
 11
9.04590557813232
 21
7.189205432048233
 31
0.0
  0
LINE
  5
36D1
330
1F
100
AcDbEntity
  8
0
100
AcDbLine
 10
9.04590557813232
 20
7.189205432048233
 30
0.0
 11
9.042494764358302
 21
7.191203440498325
 31
0.0
  0
LINE
  5
36D2
330
1F
100
AcDbEntity
  8
0
100
AcDbLine
 10
9.042494764358302
 20
7.191203440498325
 30
0.0
 11
9.039565832170165
 21
7.194381812950283
 31
0.0
  0
LINE
  5
36D3
330
1F
100
AcDbEntity
  8
0
100
AcDbLine
 10
9.039565832170165
 20
7.194381812950283
 30
0.0
 11
9.037318383456245
 21
7.198523948574013
 31
0.0
  0
LINE
  5
36D4
330
1F
100
AcDbEntity
  8
0
100
AcDbLine
 10
9.037318383456245
 20
7.198523948574013
 30
0.0
 11
9.035905578132318
 21
7.203347567671965
 31
0.0
  0
LINE
  5
36D5
330
1F
100
AcDbEntity
  8
0
100
AcDbLine
 10
9.035905578132318
 20
7.203347567671965
 30
0.0
 11
9.035423696546434
 21
7.208523948574015
 31
0.0
  0
LINE
  5
36D6
330
1F
100
AcDbEntity
  8
0
100
AcDbLine
 10
9.035423696546434
 20
7.208523948574015
 30
0.0
 11
9.035905578132318
 21
7.213700329476065
 31
0.0
  0
LINE
  5
36D7
330
1F
100
AcDbEntity
  8
0
100
AcDbLine
 10
9.035905578132318
 20
7.213700329476065
 30
0.0
 11
9.037318383456245
 21
7.218523948574015
 31
0.0
  0
LINE
  5
36D8
330
1F
100
AcDbEntity
  8
0
100
AcDbLine
 10
9.037318383456245
 20
7.218523948574015
 30
0.0
 11
9.039565832170161
 21
7.222666084197745
 31
0.0
  0
LINE
  5
36D9
330
1F
100
AcDbEntity
  8
0
100
AcDbLine
 10
9.039565832170161
 20
7.222666084197745
 30
0.0
 11
9.042494764358302
 21
7.225844456649703
 31
0.0
  0
LINE
  5
36DA
330
1F
100
AcDbEntity
  8
0
100
AcDbLine
 10
9.042494764358302
 20
7.225844456649703
 30
0.0
 11
9.04590557813232
 21
7.227842465099795
 31
0.0
  0
LINE
  5
36DB
330
1F
100
AcDbEntity
  8
0
100
AcDbLine
 10
9.04590557813232
 20
7.227842465099795
 30
0.0
 11
9.049565832170163
 21
7.228523948574014
 31
0.0
  0
LINE
  5
36DC
330
1F
100
AcDbEntity
  8
0
100
AcDbLine
 10
9.056636899982031
 20
7.228523948574014
 30
0.0
 11
9.049565832170163
 21
7.228523948574014
 31
0.0
  0
LINE
  5
36DD
330
1F
100
AcDbEntity
  8
0
100
AcDbLine
 10
9.056636899982027
 20
7.188523948574015
 30
0.0
 11
9.049565832170163
 21
7.188523948574015
 31
0.0
  0
LINE
  5
36DE
330
1F
100
AcDbEntity
  8
0
100
AcDbLine
 10
9.049565832170163
 20
8.252523948574014
 30
0.0
 11
9.053226086208006
 21
8.251842465099795
 31
0.0
  0
LINE
  5
36DF
330
1F
100
AcDbEntity
  8
0
100
AcDbLine
 10
9.053226086208006
 20
8.251842465099795
 30
0.0
 11
9.056636899982027
 21
8.249844456649704
 31
0.0
  0
LINE
  5
36E0
330
1F
100
AcDbEntity
  8
0
100
AcDbLine
 10
9.056636899982027
 20
8.249844456649704
 30
0.0
 11
9.059565832170164
 21
8.246666084197745
 31
0.0
  0
LINE
  5
36E1
330
1F
100
AcDbEntity
  8
0
100
AcDbLine
 10
9.059565832170164
 20
8.246666084197745
 30
0.0
 11
9.061813280884077
 21
8.242523948574014
 31
0.0
  0
LINE
  5
36E2
330
1F
100
AcDbEntity
  8
0
100
AcDbLine
 10
9.061813280884077
 20
8.242523948574014
 30
0.0
 11
9.063226086208008
 21
8.237700329476064
 31
0.0
  0
LINE
  5
36E3
330
1F
100
AcDbEntity
  8
0
100
AcDbLine
 10
9.063226086208008
 20
8.237700329476064
 30
0.0
 11
9.063707967793895
 21
8.232523948574014
 31
0.0
  0
LINE
  5
36E4
330
1F
100
AcDbEntity
  8
0
100
AcDbLine
 10
9.063707967793895
 20
8.232523948574014
 30
0.0
 11
9.063226086208008
 21
8.227347567671964
 31
0.0
  0
LINE
  5
36E5
330
1F
100
AcDbEntity
  8
0
100
AcDbLine
 10
9.063226086208008
 20
8.227347567671964
 30
0.0
 11
9.061813280884077
 21
8.222523948574014
 31
0.0
  0
LINE
  5
36E6
330
1F
100
AcDbEntity
  8
0
100
AcDbLine
 10
9.061813280884077
 20
8.222523948574014
 30
0.0
 11
9.059565832170164
 21
8.218381812950283
 31
0.0
  0
LINE
  5
36E7
330
1F
100
AcDbEntity
  8
0
100
AcDbLine
 10
9.059565832170164
 20
8.218381812950283
 30
0.0
 11
9.056636899982027
 21
8.215203440498324
 31
0.0
  0
LINE
  5
36E8
330
1F
100
AcDbEntity
  8
0
100
AcDbLine
 10
9.056636899982027
 20
8.215203440498324
 30
0.0
 11
9.053226086208006
 21
8.213205432048233
 31
0.0
  0
LINE
  5
36E9
330
1F
100
AcDbEntity
  8
0
100
AcDbLine
 10
9.053226086208006
 20
8.213205432048233
 30
0.0
 11
9.049565832170163
 21
8.212523948574014
 31
0.0
  0
LINE
  5
36EA
330
1F
100
AcDbEntity
  8
0
100
AcDbLine
 10
9.049565832170163
 20
8.212523948574014
 30
0.0
 11
9.045905578132316
 21
8.213205432048233
 31
0.0
  0
LINE
  5
36EB
330
1F
100
AcDbEntity
  8
0
100
AcDbLine
 10
9.045905578132316
 20
8.213205432048233
 30
0.0
 11
9.042494764358298
 21
8.215203440498324
 31
0.0
  0
LINE
  5
36EC
330
1F
100
AcDbEntity
  8
0
100
AcDbLine
 10
9.042494764358298
 20
8.215203440498324
 30
0.0
 11
9.039565832170165
 21
8.218381812950283
 31
0.0
  0
LINE
  5
36ED
330
1F
100
AcDbEntity
  8
0
100
AcDbLine
 10
9.039565832170165
 20
8.218381812950283
 30
0.0
 11
9.037318383456245
 21
8.222523948574014
 31
0.0
  0
LINE
  5
36EE
330
1F
100
AcDbEntity
  8
0
100
AcDbLine
 10
9.037318383456245
 20
8.222523948574014
 30
0.0
 11
9.035905578132314
 21
8.227347567671966
 31
0.0
  0
LINE
  5
36EF
330
1F
100
AcDbEntity
  8
0
100
AcDbLine
 10
9.035905578132314
 20
8.227347567671966
 30
0.0
 11
9.03542369654643
 21
8.232523948574016
 31
0.0
  0
LINE
  5
36F0
330
1F
100
AcDbEntity
  8
0
100
AcDbLine
 10
9.03542369654643
 20
8.232523948574016
 30
0.0
 11
9.035905578132314
 21
8.237700329476066
 31
0.0
  0
LINE
  5
36F1
330
1F
100
AcDbEntity
  8
0
100
AcDbLine
 10
9.035905578132314
 20
8.237700329476066
 30
0.0
 11
9.037318383456245
 21
8.242523948574014
 31
0.0
  0
LINE
  5
36F2
330
1F
100
AcDbEntity
  8
0
100
AcDbLine
 10
9.037318383456245
 20
8.242523948574014
 30
0.0
 11
9.039565832170161
 21
8.246666084197746
 31
0.0
  0
LINE
  5
36F3
330
1F
100
AcDbEntity
  8
0
100
AcDbLine
 10
9.039565832170161
 20
8.246666084197746
 30
0.0
 11
9.042494764358298
 21
8.249844456649704
 31
0.0
  0
LINE
  5
36F4
330
1F
100
AcDbEntity
  8
0
100
AcDbLine
 10
9.042494764358298
 20
8.249844456649704
 30
0.0
 11
9.045905578132316
 21
8.251842465099795
 31
0.0
  0
LINE
  5
36F5
330
1F
100
AcDbEntity
  8
0
100
AcDbLine
 10
9.045905578132316
 20
8.251842465099795
 30
0.0
 11
9.049565832170163
 21
8.252523948574014
 31
0.0
  0
LINE
  5
36F6
330
1F
100
AcDbEntity
  8
0
100
AcDbLine
 10
9.056636899982027
 20
8.252523948574015
 30
0.0
 11
9.049565832170163
 21
8.252523948574014
 31
0.0
  0
LINE
  5
36F7
330
1F
100
AcDbEntity
  8
0
100
AcDbLine
 10
9.056636899982027
 20
8.212523948574014
 30
0.0
 11
9.049565832170163
 21
8.212523948574014
 31
0.0
  0
LINE
  5
36F8
330
1F
100
AcDbEntity
  8
0
100
AcDbLine
 10
9.677806443263488
 20
7.220710289445525
 30
0.0
 11
9.675625968521245
 21
7.216568153821794
 31
0.0
  0
LINE
  5
36F9
330
1F
100
AcDbEntity
  8
0
100
AcDbLine
 10
9.70122914324563
 20
7.223888661897483
 30
0.0
 11
9.697919971722075
 21
7.225886670347577
 31
0.0
  0
LINE
  5
36FA
330
1F
100
AcDbEntity
  8
0
100
AcDbLine
 10
9.707621971722076
 20
7.201391772919745
 30
0.0
 11
9.708089493236705
 21
7.206568153821796
 31
0.0
  0
LINE
  5
36FB
330
1F
100
AcDbEntity
  8
0
100
AcDbLine
 10
9.707621971722076
 20
7.211744534723845
 30
0.0
 11
9.706251267996801
 21
7.216568153821794
 31
0.0
  0
LINE
  5
36FC
330
1F
100
AcDbEntity
  8
0
100
AcDbLine
 10
9.697919971722075
 20
7.187249637296014
 30
0.0
 11
9.701229143245626
 21
7.189247645746107
 31
0.0
  0
LINE
  5
36FD
330
1F
100
AcDbEntity
  8
0
100
AcDbLine
 10
9.687508443263489
 20
8.264568153821798
 30
0.0
 11
9.694368793254561
 21
8.264568153821798
 31
0.0
  0
LINE
  5
36FE
330
1F
100
AcDbEntity
  8
0
100
AcDbLine
 10
10.2103863595761
 20
7.227842465099794
 30
0.0
 11
10.20683518110858
 21
7.228523948574013
 31
0.0
  0
LINE
  5
36FF
330
1F
100
AcDbEntity
  8
0
100
AcDbLine
 10
9.682486318512317
 20
8.234568153821799
 30
0.0
 11
9.68466679325456
 21
8.230426018198066
 31
0.0
  0
LINE
  5
3700
330
1F
100
AcDbEntity
  8
0
100
AcDbLine
 10
9.675625968521245
 20
7.216568153821794
 30
0.0
 11
9.67425526479597
 21
7.211744534723845
 31
0.0
  0
LINE
  5
3701
330
1F
100
AcDbEntity
  8
0
100
AcDbLine
 10
10.19642365265
 20
8.213205432048232
 30
0.0
 11
10.19997483111752
 21
8.212523948574013
 31
0.0
  0
LINE
  5
3702
330
1F
100
AcDbEntity
  8
0
100
AcDbLine
 10
10.19997483111752
 20
8.212523948574013
 30
0.0
 11
10.20683518110859
 21
8.212523948574013
 31
0.0
  0
LINE
  5
3703
330
1F
100
AcDbEntity
  8
0
100
AcDbLine
 10
10.20328400264107
 20
8.213205432048232
 30
0.0
 11
10.20683518110859
 21
8.212523948574013
 31
0.0
  0
LINE
  5
3704
330
1F
100
AcDbEntity
  8
0
100
AcDbLine
 10
9.694368793254557
 20
7.226568153821794
 30
0.0
 11
9.690817614787039
 21
7.225886670347575
 31
0.0
  0
LINE
  5
3705
330
1F
100
AcDbEntity
  8
0
100
AcDbLine
 10
9.68466679325456
 20
8.258710289445529
 30
0.0
 11
9.682486318512317
 21
8.254568153821796
 31
0.0
  0
LINE
  5
3706
330
1F
100
AcDbEntity
  8
0
100
AcDbLine
 10
10.2103863595761
 20
8.251842465099795
 30
0.0
 11
10.20683518110859
 21
8.252523948574012
 31
0.0
  0
LINE
  5
3707
330
1F
100
AcDbEntity
  8
0
100
AcDbLine
 10
9.687508443263485
 20
7.226568153821794
 30
0.0
 11
9.683957264795971
 21
7.225886670347575
 31
0.0
  0
LINE
  5
3708
330
1F
100
AcDbEntity
  8
0
100
AcDbLine
 10
9.67425526479597
 20
7.211744534723845
 30
0.0
 11
9.673787743281341
 21
7.206568153821795
 31
0.0
  0
LINE
  5
3709
330
1F
100
AcDbEntity
  8
0
100
AcDbLine
 10
9.681115614787042
 20
8.249744534723845
 30
0.0
 11
9.680648093272417
 21
8.244568153821795
 31
0.0
  0
LINE
  5
370A
330
1F
100
AcDbEntity
  8
0
100
AcDbLine
 10
9.687508443263492
 20
8.261888661897486
 30
0.0
 11
9.68466679325456
 21
8.258710289445529
 31
0.0
  0
LINE
  5
370B
330
1F
100
AcDbEntity
  8
0
100
AcDbLine
 10
9.687508443263485
 20
7.223888661897484
 30
0.0
 11
9.684666793254557
 21
7.220710289445527
 31
0.0
  0
LINE
  5
370C
330
1F
100
AcDbEntity
  8
0
100
AcDbLine
 10
9.706251267996801
 20
7.216568153821794
 30
0.0
 11
9.704070793254558
 21
7.220710289445527
 31
0.0
  0
LINE
  5
370D
330
1F
100
AcDbEntity
  8
0
100
AcDbLine
 10
9.682486318512317
 20
8.254568153821796
 30
0.0
 11
9.681115614787042
 21
8.249744534723845
 31
0.0
  0
LINE
  5
370E
330
1F
100
AcDbEntity
  8
0
100
AcDbLine
 10
9.683957264795971
 20
7.225886670347575
 30
0.0
 11
9.680648093272417
 21
7.223888661897484
 31
0.0
  0
LINE
  5
370F
330
1F
100
AcDbEntity
  8
0
100
AcDbLine
 10
9.68466679325456
 20
8.230426018198066
 30
0.0
 11
9.687508443263492
 21
8.227247645746107
 31
0.0
  0
LINE
  5
3710
330
1F
100
AcDbEntity
  8
0
100
AcDbLine
 10
10.2200883595761
 20
7.213700329476063
 30
0.0
 11
10.21871765585083
 21
7.218523948574013
 31
0.0
  0
LINE
  5
3711
330
1F
100
AcDbEntity
  8
0
100
AcDbLine
 10
10.2103863595761
 20
7.189205432048231
 30
0.0
 11
10.21369553109965
 21
7.191203440498323
 31
0.0
  0
LINE
  5
3712
330
1F
100
AcDbEntity
  8
0
100
AcDbLine
 10
9.704070793254558
 20
7.220710289445527
 30
0.0
 11
9.70122914324563
 21
7.223888661897483
 31
0.0
  0
LINE
  5
3713
330
1F
100
AcDbEntity
  8
0
100
AcDbLine
 10
9.697919971722075
 20
7.225886670347577
 30
0.0
 11
9.694368793254557
 21
7.226568153821794
 31
0.0
  0
LINE
  5
3714
330
1F
100
AcDbEntity
  8
0
100
AcDbLine
 10
9.680648093272417
 20
7.223888661897484
 30
0.0
 11
9.677806443263488
 21
7.220710289445525
 31
0.0
  0
LINE
  5
3715
330
1F
100
AcDbEntity
  8
0
100
AcDbLine
 10
9.706251267996798
 20
7.196568153821795
 30
0.0
 11
9.707621971722076
 21
7.201391772919745
 31
0.0
  0
LINE
  5
3716
330
1F
100
AcDbEntity
  8
0
100
AcDbLine
 10
9.687508443263485
 20
7.226568153821794
 30
0.0
 11
9.694368793254557
 21
7.226568153821794
 31
0.0
  0
LINE
  5
3717
330
1F
100
AcDbEntity
  8
0
100
AcDbLine
 10
9.674255264795974
 20
8.249744534723845
 30
0.0
 11
9.673787743281344
 21
8.244568153821795
 31
0.0
  0
LINE
  5
3718
330
1F
100
AcDbEntity
  8
0
100
AcDbLine
 10
9.681115614787042
 20
8.239391772919749
 30
0.0
 11
9.682486318512317
 21
8.234568153821799
 31
0.0
  0
LINE
  5
3719
330
1F
100
AcDbEntity
  8
0
100
AcDbLine
 10
9.681115614787042
 20
7.201391772919745
 30
0.0
 11
9.682486318512317
 21
7.196568153821797
 31
0.0
  0
LINE
  5
371A
330
1F
100
AcDbEntity
  8
0
100
AcDbLine
 10
9.680648093272417
 20
8.244568153821795
 30
0.0
 11
9.681115614787042
 21
8.239391772919749
 31
0.0
  0
LINE
  5
371B
330
1F
100
AcDbEntity
  8
0
100
AcDbLine
 10
10.19642365265
 20
8.251842465099795
 30
0.0
 11
10.19311448112644
 21
8.249844456649702
 31
0.0
  0
LINE
  5
371C
330
1F
100
AcDbEntity
  8
0
100
AcDbLine
 10
10.20328400264107
 20
8.251842465099795
 30
0.0
 11
10.19997483111752
 21
8.249844456649702
 31
0.0
  0
LINE
  5
371D
330
1F
100
AcDbEntity
  8
0
100
AcDbLine
 10
10.19027283111751
 20
7.222666084197744
 30
0.0
 11
10.18809235637527
 21
7.218523948574013
 31
0.0
  0
LINE
  5
371E
330
1F
100
AcDbEntity
  8
0
100
AcDbLine
 10
10.21653718110858
 20
7.194381812950281
 30
0.0
 11
10.21871765585083
 21
7.198523948574012
 31
0.0
  0
LINE
  5
371F
330
1F
100
AcDbEntity
  8
0
100
AcDbLine
 10
9.70762197172208
 20
8.239391772919747
 30
0.0
 11
9.708089493236705
 21
8.244568153821797
 31
0.0
  0
LINE
  5
3720
330
1F
100
AcDbEntity
  8
0
100
AcDbLine
 10
10.19997483111751
 20
7.228523948574013
 30
0.0
 11
10.19642365264999
 21
7.227842465099795
 31
0.0
  0
LINE
  5
3721
330
1F
100
AcDbEntity
  8
0
100
AcDbLine
 10
10.22055588109073
 20
7.208523948574011
 30
0.0
 11
10.2200883595761
 21
7.213700329476063
 31
0.0
  0
LINE
  5
3722
330
1F
100
AcDbEntity
  8
0
100
AcDbLine
 10
9.648693779376873
 20
7.156967703621686
 30
0.0
 11
9.648693779376873
 21
8.296967703621689
 31
0.0
  0
LINE
  5
3723
330
1F
100
AcDbEntity
  8
0
100
AcDbLine
 10
10.19713318110858
 20
8.246666084197745
 30
0.0
 11
10.19495270636634
 21
8.242523948574014
 31
0.0
  0
LINE
  5
3724
330
1F
100
AcDbEntity
  8
0
100
AcDbLine
 10
10.18809235637527
 20
7.218523948574013
 30
0.0
 11
10.18672165264999
 21
7.213700329476061
 31
0.0
  0
LINE
  5
3725
330
1F
100
AcDbEntity
  8
0
100
AcDbLine
 10
10.19495270636634
 20
7.218523948574013
 30
0.0
 11
10.19358200264107
 21
7.213700329476061
 31
0.0
  0
LINE
  5
3726
330
1F
100
AcDbEntity
  8
0
100
AcDbLine
 10
9.70762197172208
 20
8.249744534723848
 30
0.0
 11
9.706251267996801
 21
8.254568153821795
 31
0.0
  0
LINE
  5
3727
330
1F
100
AcDbEntity
  8
0
100
AcDbLine
 10
10.18672165265
 20
8.237700329476062
 30
0.0
 11
10.18625413113537
 21
8.232523948574012
 31
0.0
  0
LINE
  5
3728
330
1F
100
AcDbEntity
  8
0
100
AcDbLine
 10
10.19358200264107
 20
8.237700329476062
 30
0.0
 11
10.19311448112644
 21
8.232523948574012
 31
0.0
  0
LINE
  5
3729
330
1F
100
AcDbEntity
  8
0
100
AcDbLine
 10
10.20683518110858
 20
7.188523948574013
 30
0.0
 11
10.2103863595761
 21
7.189205432048231
 31
0.0
  0
LINE
  5
372A
330
1F
100
AcDbEntity
  8
0
100
AcDbLine
 10
10.19997483111751
 20
7.188523948574013
 30
0.0
 11
10.20683518110858
 21
7.188523948574013
 31
0.0
  0
LINE
  5
372B
330
1F
100
AcDbEntity
  8
0
100
AcDbLine
 10
9.683957264795971
 20
7.187249637296014
 30
0.0
 11
9.687508443263485
 21
7.186568153821795
 31
0.0
  0
LINE
  5
372C
330
1F
100
AcDbEntity
  8
0
100
AcDbLine
 10
9.687508443263485
 20
7.186568153821795
 30
0.0
 11
9.694368793254557
 21
7.186568153821795
 31
0.0
  0
LINE
  5
372D
330
1F
100
AcDbEntity
  8
0
100
AcDbLine
 10
9.690817614787039
 20
7.187249637296014
 30
0.0
 11
9.694368793254557
 21
7.186568153821795
 31
0.0
  0
LINE
  5
372E
330
1F
100
AcDbEntity
  8
0
100
AcDbLine
 10
9.681115614787042
 20
7.211744534723845
 30
0.0
 11
9.680648093272413
 21
7.206568153821795
 31
0.0
  0
LINE
  5
372F
330
1F
100
AcDbEntity
  8
0
100
AcDbLine
 10
9.706251267996801
 20
8.254568153821795
 30
0.0
 11
9.704070793254562
 21
8.258710289445529
 31
0.0
  0
LINE
  5
3730
330
1F
100
AcDbEntity
  8
0
100
AcDbLine
 10
10.19311448112644
 20
8.249844456649702
 30
0.0
 11
10.19027283111751
 21
8.246666084197745
 31
0.0
  0
LINE
  5
3731
330
1F
100
AcDbEntity
  8
0
100
AcDbLine
 10
9.67425526479597
 20
8.239391772919747
 30
0.0
 11
9.675625968521249
 21
8.234568153821797
 31
0.0
  0
LINE
  5
3732
330
1F
100
AcDbEntity
  8
0
100
AcDbLine
 10
10.19027283111751
 20
8.246666084197745
 30
0.0
 11
10.18809235637527
 21
8.242523948574014
 31
0.0
  0
LINE
  5
3733
330
1F
100
AcDbEntity
  8
0
100
AcDbLine
 10
10.21369553109966
 20
8.215203440498324
 30
0.0
 11
10.21653718110859
 21
8.218381812950282
 31
0.0
  0
LINE
  5
3734
330
1F
100
AcDbEntity
  8
0
100
AcDbLine
 10
10.21871765585083
 20
8.222523948574012
 30
0.0
 11
10.22008835957611
 21
8.227347567671962
 31
0.0
  0
LINE
  5
3735
330
1F
100
AcDbEntity
  8
0
100
AcDbLine
 10
10.19311448112644
 20
8.215203440498324
 30
0.0
 11
10.19642365265
 21
8.213205432048232
 31
0.0
  0
LINE
  5
3736
330
1F
100
AcDbEntity
  8
0
100
AcDbLine
 10
10.21653718110859
 20
8.246666084197745
 30
0.0
 11
10.21369553109966
 21
8.249844456649702
 31
0.0
  0
LINE
  5
3737
330
1F
100
AcDbEntity
  8
0
100
AcDbLine
 10
9.68064809327242
 20
8.227247645746107
 30
0.0
 11
9.683957264795971
 21
8.225249637296014
 31
0.0
  0
LINE
  5
3738
330
1F
100
AcDbEntity
  8
0
100
AcDbLine
 10
10.18809235637527
 20
8.242523948574014
 30
0.0
 11
10.18672165265
 21
8.237700329476062
 31
0.0
  0
LINE
  5
3739
330
1F
100
AcDbEntity
  8
0
100
AcDbLine
 10
10.18809235637527
 20
8.222523948574014
 30
0.0
 11
10.19027283111751
 21
8.218381812950282
 31
0.0
  0
LINE
  5
373A
330
1F
100
AcDbEntity
  8
0
100
AcDbLine
 10
10.19495270636634
 20
8.222523948574014
 30
0.0
 11
10.19713318110858
 21
8.21838181295028
 31
0.0
  0
LINE
  5
373B
330
1F
100
AcDbEntity
  8
0
100
AcDbLine
 10
9.708089493236705
 20
8.244568153821797
 30
0.0
 11
9.70762197172208
 21
8.249744534723848
 31
0.0
  0
LINE
  5
373C
330
1F
100
AcDbEntity
  8
0
100
AcDbLine
 10
10.19642365264999
 20
7.189205432048233
 30
0.0
 11
10.19997483111751
 21
7.188523948574013
 31
0.0
  0
LINE
  5
373D
330
1F
100
AcDbEntity
  8
0
100
AcDbLine
 10
9.68064809327242
 20
8.261888661897486
 30
0.0
 11
9.677806443263492
 21
8.258710289445527
 31
0.0
  0
LINE
  5
373E
330
1F
100
AcDbEntity
  8
0
100
AcDbLine
 10
9.70122914324563
 20
8.261888661897486
 30
0.0
 11
9.697919971722079
 21
8.263886670347579
 31
0.0
  0
LINE
  5
373F
330
1F
100
AcDbEntity
  8
0
100
AcDbLine
 10
10.19997483111752
 20
8.252523948574014
 30
0.0
 11
10.19642365265
 21
8.251842465099795
 31
0.0
  0
LINE
  5
3740
330
1F
100
AcDbEntity
  8
0
100
AcDbLine
 10
9.683957264795971
 20
8.225249637296014
 30
0.0
 11
9.687508443263489
 21
8.224568153821797
 31
0.0
  0
LINE
  5
3741
330
1F
100
AcDbEntity
  8
0
100
AcDbLine
 10
9.677806443263488
 20
8.230426018198066
 30
0.0
 11
9.68064809327242
 21
8.227247645746107
 31
0.0
  0
LINE
  5
3742
330
1F
100
AcDbEntity
  8
0
100
AcDbLine
 10
10.19713318110858
 20
7.222666084197744
 30
0.0
 11
10.19495270636634
 21
7.218523948574013
 31
0.0
  0
LINE
  5
3743
330
1F
100
AcDbEntity
  8
0
100
AcDbLine
 10
9.675625968521249
 20
8.234568153821797
 30
0.0
 11
9.677806443263488
 21
8.230426018198066
 31
0.0
  0
LINE
  5
3744
330
1F
100
AcDbEntity
  8
0
100
AcDbLine
 10
10.19997483111752
 20
8.252523948574014
 30
0.0
 11
10.20683518110859
 21
8.252523948574012
 31
0.0
  0
LINE
  5
3745
330
1F
100
AcDbEntity
  8
0
100
AcDbLine
 10
9.673787743281344
 20
8.244568153821795
 30
0.0
 11
9.67425526479597
 21
8.239391772919747
 31
0.0
  0
LINE
  5
3746
330
1F
100
AcDbEntity
  8
0
100
AcDbLine
 10
10.19311448112644
 20
7.191203440498323
 30
0.0
 11
10.19642365264999
 21
7.189205432048233
 31
0.0
  0
LINE
  5
3747
330
1F
100
AcDbEntity
  8
0
100
AcDbLine
 10
10.20683518110858
 20
7.228523948574013
 30
0.0
 11
10.20328400264107
 21
7.227842465099795
 31
0.0
  0
LINE
  5
3748
330
1F
100
AcDbEntity
  8
0
100
AcDbLine
 10
10.19997483111751
 20
7.228523948574013
 30
0.0
 11
10.20683518110858
 21
7.228523948574013
 31
0.0
  0
LINE
  5
3749
330
1F
100
AcDbEntity
  8
0
100
AcDbLine
 10
10.20683518110859
 20
8.212523948574013
 30
0.0
 11
10.2103863595761
 21
8.213205432048232
 31
0.0
  0
LINE
  5
374A
330
1F
100
AcDbEntity
  8
0
100
AcDbLine
 10
10.19642365264999
 20
7.227842465099795
 30
0.0
 11
10.19311448112644
 21
7.225844456649703
 31
0.0
  0
LINE
  5
374B
330
1F
100
AcDbEntity
  8
0
100
AcDbLine
 10
9.694368793254557
 20
7.186568153821795
 30
0.0
 11
9.697919971722075
 21
7.187249637296014
 31
0.0
  0
LINE
  5
374C
330
1F
100
AcDbEntity
  8
0
100
AcDbLine
 10
9.687508443263492
 20
8.227247645746107
 30
0.0
 11
9.690817614787043
 21
8.225249637296016
 31
0.0
  0
LINE
  5
374D
330
1F
100
AcDbEntity
  8
0
100
AcDbLine
 10
10.21871765585083
 20
7.218523948574013
 30
0.0
 11
10.21653718110859
 21
7.222666084197745
 31
0.0
  0
LINE
  5
374E
330
1F
100
AcDbEntity
  8
0
100
AcDbLine
 10
10.19495270636634
 20
8.242523948574014
 30
0.0
 11
10.19358200264107
 21
8.237700329476062
 31
0.0
  0
LINE
  5
374F
330
1F
100
AcDbEntity
  8
0
100
AcDbLine
 10
10.21369553109965
 20
7.191203440498323
 30
0.0
 11
10.21653718110858
 21
7.194381812950281
 31
0.0
  0
LINE
  5
3750
330
1F
100
AcDbEntity
  8
0
100
AcDbLine
 10
9.680648093272417
 20
7.189247645746105
 30
0.0
 11
9.683957264795971
 21
7.187249637296014
 31
0.0
  0
LINE
  5
3751
330
1F
100
AcDbEntity
  8
0
100
AcDbLine
 10
9.677806443263488
 20
7.192426018198064
 30
0.0
 11
9.680648093272417
 21
7.189247645746105
 31
0.0
  0
LINE
  5
3752
330
1F
100
AcDbEntity
  8
0
100
AcDbLine
 10
9.675625968521245
 20
7.196568153821797
 30
0.0
 11
9.677806443263488
 21
7.192426018198064
 31
0.0
  0
LINE
  5
3753
330
1F
100
AcDbEntity
  8
0
100
AcDbLine
 10
9.67425526479597
 20
7.201391772919745
 30
0.0
 11
9.675625968521245
 21
7.196568153821797
 31
0.0
  0
LINE
  5
3754
330
1F
100
AcDbEntity
  8
0
100
AcDbLine
 10
9.673787743281341
 20
7.206568153821795
 30
0.0
 11
9.67425526479597
 21
7.201391772919745
 31
0.0
  0
LINE
  5
3755
330
1F
100
AcDbEntity
  8
0
100
AcDbLine
 10
10.19027283111751
 20
7.194381812950283
 30
0.0
 11
10.19311448112644
 21
7.191203440498323
 31
0.0
  0
LINE
  5
3756
330
1F
100
AcDbEntity
  8
0
100
AcDbLine
 10
10.18809235637527
 20
7.198523948574015
 30
0.0
 11
10.19027283111751
 21
7.194381812950283
 31
0.0
  0
LINE
  5
3757
330
1F
100
AcDbEntity
  8
0
100
AcDbLine
 10
10.18672165264999
 20
7.203347567671963
 30
0.0
 11
10.18809235637527
 21
7.198523948574015
 31
0.0
  0
LINE
  5
3758
330
1F
100
AcDbEntity
  8
0
100
AcDbLine
 10
10.18625413113537
 20
7.208523948574011
 30
0.0
 11
10.18672165264999
 21
7.203347567671963
 31
0.0
  0
LINE
  5
3759
330
1F
100
AcDbEntity
  8
0
100
AcDbLine
 10
10.18672165264999
 20
7.213700329476061
 30
0.0
 11
10.18625413113537
 21
7.208523948574011
 31
0.0
  0
LINE
  5
375A
330
1F
100
AcDbEntity
  8
0
100
AcDbLine
 10
10.19311448112644
 20
7.225844456649703
 30
0.0
 11
10.19027283111751
 21
7.222666084197744
 31
0.0
  0
LINE
  5
375B
330
1F
100
AcDbEntity
  8
0
100
AcDbLine
 10
10.19027283111751
 20
8.218381812950282
 30
0.0
 11
10.19311448112644
 21
8.215203440498324
 31
0.0
  0
LINE
  5
375C
330
1F
100
AcDbEntity
  8
0
100
AcDbLine
 10
10.18672165265
 20
8.227347567671962
 30
0.0
 11
10.18809235637527
 21
8.222523948574014
 31
0.0
  0
LINE
  5
375D
330
1F
100
AcDbEntity
  8
0
100
AcDbLine
 10
10.18625413113537
 20
8.232523948574012
 30
0.0
 11
10.18672165265
 21
8.227347567671962
 31
0.0
  0
LINE
  5
375E
330
1F
100
AcDbEntity
  8
0
100
AcDbLine
 10
9.687508443263489
 20
8.264568153821798
 30
0.0
 11
9.683957264795974
 21
8.263886670347577
 31
0.0
  0
LINE
  5
375F
330
1F
100
AcDbEntity
  8
0
100
AcDbLine
 10
9.675625968521249
 20
8.254568153821796
 30
0.0
 11
9.674255264795974
 21
8.249744534723845
 31
0.0
  0
LINE
  5
3760
330
1F
100
AcDbEntity
  8
0
100
AcDbLine
 10
9.677806443263492
 20
8.258710289445527
 30
0.0
 11
9.675625968521249
 21
8.254568153821796
 31
0.0
  0
LINE
  5
3761
330
1F
100
AcDbEntity
  8
0
100
AcDbLine
 10
9.683957264795974
 20
8.263886670347577
 30
0.0
 11
9.68064809327242
 21
8.261888661897486
 31
0.0
  0
LINE
  5
3762
330
1F
100
AcDbEntity
  8
0
100
AcDbLine
 10
9.690817614787043
 20
8.225249637296016
 30
0.0
 11
9.694368793254561
 21
8.224568153821795
 31
0.0
  0
LINE
  5
3763
330
1F
100
AcDbEntity
  8
0
100
AcDbLine
 10
10.21871765585083
 20
7.198523948574012
 30
0.0
 11
10.2200883595761
 21
7.203347567671963
 31
0.0
  0
LINE
  5
3764
330
1F
100
AcDbEntity
  8
0
100
AcDbLine
 10
10.2103863595761
 20
8.213205432048232
 30
0.0
 11
10.21369553109966
 21
8.215203440498324
 31
0.0
  0
LINE
  5
3765
330
1F
100
AcDbEntity
  8
0
100
AcDbLine
 10
9.70122914324563
 20
8.227247645746107
 30
0.0
 11
9.704070793254558
 21
8.230426018198066
 31
0.0
  0
LINE
  5
3766
330
1F
100
AcDbEntity
  8
0
100
AcDbLine
 10
10.21369553109966
 20
8.249844456649702
 30
0.0
 11
10.2103863595761
 21
8.251842465099795
 31
0.0
  0
LINE
  5
3767
330
1F
100
AcDbEntity
  8
0
100
AcDbLine
 10
10.19997483111751
 20
7.225844456649701
 30
0.0
 11
10.19713318110858
 21
7.222666084197744
 31
0.0
  0
LINE
  5
3768
330
1F
100
AcDbEntity
  8
0
100
AcDbLine
 10
10.19713318110858
 20
8.21838181295028
 30
0.0
 11
10.19997483111752
 21
8.215203440498324
 31
0.0
  0
LINE
  5
3769
330
1F
100
AcDbEntity
  8
0
100
AcDbLine
 10
10.20683518110859
 20
8.252523948574012
 30
0.0
 11
10.20328400264107
 21
8.251842465099795
 31
0.0
  0
LINE
  5
376A
330
1F
100
AcDbEntity
  8
0
100
AcDbLine
 10
10.19997483111752
 20
8.249844456649702
 30
0.0
 11
10.19713318110858
 21
8.246666084197745
 31
0.0
  0
LINE
  5
376B
330
1F
100
AcDbEntity
  8
0
100
AcDbLine
 10
10.19311448112644
 20
8.232523948574012
 30
0.0
 11
10.19358200264107
 21
8.227347567671962
 31
0.0
  0
LINE
  5
376C
330
1F
100
AcDbEntity
  8
0
100
AcDbLine
 10
10.19358200264107
 20
8.227347567671962
 30
0.0
 11
10.19495270636634
 21
8.222523948574014
 31
0.0
  0
LINE
  5
376D
330
1F
100
AcDbEntity
  8
0
100
AcDbLine
 10
10.19997483111752
 20
8.215203440498324
 30
0.0
 11
10.20328400264107
 21
8.213205432048232
 31
0.0
  0
LINE
  5
376E
330
1F
100
AcDbEntity
  8
0
100
AcDbLine
 10
10.21653718110859
 20
8.218381812950282
 30
0.0
 11
10.21871765585083
 21
8.222523948574012
 31
0.0
  0
LINE
  5
376F
330
1F
100
AcDbEntity
  8
0
100
AcDbLine
 10
10.22008835957611
 20
8.227347567671962
 30
0.0
 11
10.22055588109073
 21
8.232523948574014
 31
0.0
  0
LINE
  5
3770
330
1F
100
AcDbEntity
  8
0
100
AcDbLine
 10
10.22055588109073
 20
8.232523948574014
 30
0.0
 11
10.2200883595761
 21
8.237700329476062
 31
0.0
  0
LINE
  5
3771
330
1F
100
AcDbEntity
  8
0
100
AcDbLine
 10
10.2200883595761
 20
8.237700329476062
 30
0.0
 11
10.21871765585083
 21
8.24252394857401
 31
0.0
  0
LINE
  5
3772
330
1F
100
AcDbEntity
  8
0
100
AcDbLine
 10
10.21871765585083
 20
8.24252394857401
 30
0.0
 11
10.21653718110859
 21
8.246666084197745
 31
0.0
  0
LINE
  5
3773
330
1F
100
AcDbEntity
  8
0
100
AcDbLine
 10
9.694368793254561
 20
8.224568153821795
 30
0.0
 11
9.697919971722079
 21
8.225249637296014
 31
0.0
  0
LINE
  5
3774
330
1F
100
AcDbEntity
  8
0
100
AcDbLine
 10
9.687508443263489
 20
8.224568153821797
 30
0.0
 11
9.694368793254561
 21
8.224568153821795
 31
0.0
  0
LINE
  5
3775
330
1F
100
AcDbEntity
  8
0
100
AcDbLine
 10
9.708089493236705
 20
7.206568153821796
 30
0.0
 11
9.707621971722076
 21
7.211744534723845
 31
0.0
  0
LINE
  5
3776
330
1F
100
AcDbEntity
  8
0
100
AcDbLine
 10
10.20328400264107
 20
7.227842465099795
 30
0.0
 11
10.19997483111751
 21
7.225844456649701
 31
0.0
  0
LINE
  5
3777
330
1F
100
AcDbEntity
  8
0
100
AcDbLine
 10
10.19358200264107
 20
7.213700329476061
 30
0.0
 11
10.19311448112644
 21
7.208523948574013
 31
0.0
  0
LINE
  5
3778
330
1F
100
AcDbEntity
  8
0
100
AcDbLine
 10
10.19311448112644
 20
7.208523948574013
 30
0.0
 11
10.19358200264107
 21
7.203347567671963
 31
0.0
  0
LINE
  5
3779
330
1F
100
AcDbEntity
  8
0
100
AcDbLine
 10
10.19358200264107
 20
7.203347567671963
 30
0.0
 11
10.19495270636634
 21
7.198523948574015
 31
0.0
  0
LINE
  5
377A
330
1F
100
AcDbEntity
  8
0
100
AcDbLine
 10
10.19495270636634
 20
7.198523948574015
 30
0.0
 11
10.19713318110858
 21
7.194381812950283
 31
0.0
  0
LINE
  5
377B
330
1F
100
AcDbEntity
  8
0
100
AcDbLine
 10
10.19713318110858
 20
7.194381812950283
 30
0.0
 11
10.19997483111751
 21
7.191203440498325
 31
0.0
  0
LINE
  5
377C
330
1F
100
AcDbEntity
  8
0
100
AcDbLine
 10
10.19997483111751
 20
7.191203440498325
 30
0.0
 11
10.20328400264107
 21
7.189205432048233
 31
0.0
  0
LINE
  5
377D
330
1F
100
AcDbEntity
  8
0
100
AcDbLine
 10
10.20328400264107
 20
7.189205432048233
 30
0.0
 11
10.20683518110858
 21
7.188523948574013
 31
0.0
  0
LINE
  5
377E
330
1F
100
AcDbEntity
  8
0
100
AcDbLine
 10
10.2200883595761
 20
7.203347567671963
 30
0.0
 11
10.22055588109073
 21
7.208523948574011
 31
0.0
  0
LINE
  5
377F
330
1F
100
AcDbEntity
  8
0
100
AcDbLine
 10
10.21653718110859
 20
7.222666084197745
 30
0.0
 11
10.21369553109965
 21
7.225844456649701
 31
0.0
  0
LINE
  5
3780
330
1F
100
AcDbEntity
  8
0
100
AcDbLine
 10
10.21369553109965
 20
7.225844456649701
 30
0.0
 11
10.2103863595761
 21
7.227842465099794
 31
0.0
  0
LINE
  5
3781
330
1F
100
AcDbEntity
  8
0
100
AcDbLine
 10
9.706251267996801
 20
8.234568153821797
 30
0.0
 11
9.70762197172208
 21
8.239391772919747
 31
0.0
  0
LINE
  5
3782
330
1F
100
AcDbEntity
  8
0
100
AcDbLine
 10
9.704070793254555
 20
7.192426018198064
 30
0.0
 11
9.706251267996798
 21
7.196568153821795
 31
0.0
  0
LINE
  5
3783
330
1F
100
AcDbEntity
  8
0
100
AcDbLine
 10
9.704070793254558
 20
8.230426018198066
 30
0.0
 11
9.706251267996801
 21
8.234568153821797
 31
0.0
  0
LINE
  5
3784
330
1F
100
AcDbEntity
  8
0
100
AcDbLine
 10
9.694368793254561
 20
8.264568153821798
 30
0.0
 11
9.690817614787043
 21
8.263886670347579
 31
0.0
  0
LINE
  5
3785
330
1F
100
AcDbEntity
  8
0
100
AcDbLine
 10
9.690817614787043
 20
8.263886670347579
 30
0.0
 11
9.687508443263492
 21
8.261888661897486
 31
0.0
  0
LINE
  5
3786
330
1F
100
AcDbEntity
  8
0
100
AcDbLine
 10
9.697919971722079
 20
8.225249637296014
 30
0.0
 11
9.70122914324563
 21
8.227247645746107
 31
0.0
  0
LINE
  5
3787
330
1F
100
AcDbEntity
  8
0
100
AcDbLine
 10
9.704070793254562
 20
8.258710289445529
 30
0.0
 11
9.70122914324563
 21
8.261888661897486
 31
0.0
  0
LINE
  5
3788
330
1F
100
AcDbEntity
  8
0
100
AcDbLine
 10
9.697919971722079
 20
8.263886670347579
 30
0.0
 11
9.694368793254561
 21
8.264568153821798
 31
0.0
  0
LINE
  5
3789
330
1F
100
AcDbEntity
  8
0
100
AcDbLine
 10
9.701229143245626
 20
7.189247645746107
 30
0.0
 11
9.704070793254555
 21
7.192426018198064
 31
0.0
  0
LINE
  5
378A
330
1F
100
AcDbEntity
  8
0
100
AcDbLine
 10
9.682486318512317
 20
7.196568153821797
 30
0.0
 11
9.684666793254557
 21
7.192426018198064
 31
0.0
  0
LINE
  5
378B
330
1F
100
AcDbEntity
  8
0
100
AcDbLine
 10
9.680648093272413
 20
7.206568153821795
 30
0.0
 11
9.681115614787042
 21
7.201391772919745
 31
0.0
  0
LINE
  5
378C
330
1F
100
AcDbEntity
  8
0
100
AcDbLine
 10
9.684666793254557
 20
7.192426018198064
 30
0.0
 11
9.687508443263485
 21
7.189247645746107
 31
0.0
  0
LINE
  5
378D
330
1F
100
AcDbEntity
  8
0
100
AcDbLine
 10
9.687508443263485
 20
7.189247645746107
 30
0.0
 11
9.690817614787039
 21
7.187249637296014
 31
0.0
  0
LINE
  5
378E
330
1F
100
AcDbEntity
  8
0
100
AcDbLine
 10
9.682486318512317
 20
7.216568153821796
 30
0.0
 11
9.681115614787042
 21
7.211744534723845
 31
0.0
  0
LINE
  5
378F
330
1F
100
AcDbEntity
  8
0
100
AcDbLine
 10
9.684666793254557
 20
7.220710289445527
 30
0.0
 11
9.682486318512317
 21
7.216568153821796
 31
0.0
  0
LINE
  5
3790
330
1F
100
AcDbEntity
  8
0
100
AcDbLine
 10
9.690817614787039
 20
7.225886670347575
 30
0.0
 11
9.687508443263485
 21
7.223888661897484
 31
0.0
  0
LINE
  5
3791
330
1F
100
AcDbEntity
  8
0
100
AcDbLine
 10
10.29432011949643
 20
8.284289801352649
 30
0.0
 11
10.29303303640173
 21
8.284070862024234
 31
0.0
  0
LINE
  5
3792
330
1F
100
AcDbEntity
  8
0
100
AcDbLine
 10
10.29213250908331
 20
6.257759189971991
 30
0.0
 11
10.29213250908331
 21
6.265969929900182
 31
0.0
  0
LINE
  5
3793
330
1F
100
AcDbEntity
  8
0
100
AcDbLine
 10
10.29204257879631
 20
8.283758750902016
 30
0.0
 11
10.291704752152
 21
8.283423814411477
 31
0.0
  0
LINE
  5
3794
330
1F
100
AcDbEntity
  8
0
100
AcDbLine
 10
10.15871360499266
 20
7.152330670570121
 30
0.0
 11
10.15871360499266
 21
6.360026387267359
 31
0.0
  0
LINE
  5
3795
330
1F
100
AcDbEntity
  8
0
100
AcDbLine
 10
9.166713604992665
 20
7.152330670570115
 30
0.0
 11
9.166713604992665
 21
6.361175225376094
 31
0.0
  0
LINE
  5
3796
330
1F
100
AcDbEntity
  8
0
100
AcDbLine
 10
10.25739838381067
 20
6.437927809337952
 30
0.0
 11
10.24874675343689
 21
6.431289179862131
 31
0.0
  0
LINE
  5
3797
330
1F
100
AcDbEntity
  8
0
100
AcDbLine
 10
10.24874675343689
 20
6.431289179862131
 30
0.0
 11
10.24704304475134
 21
6.429981878208057
 31
0.0
  0
LINE
  5
3798
330
1F
100
AcDbEntity
  8
0
100
AcDbLine
 10
10.23909711362145
 20
6.369626539148731
 30
0.0
 11
10.24321023023643
 21
6.364266221214636
 31
0.0
  0
LINE
  5
3799
330
1F
100
AcDbEntity
  8
0
100
AcDbLine
 10
10.24321023023643
 20
6.364266221214636
 30
0.0
 11
10.24704304475134
 21
6.359271200089404
 31
0.0
  0
LINE
  5
379A
330
1F
100
AcDbEntity
  8
0
100
AcDbLine
 10
10.31775372287
 20
6.359271200089404
 30
0.0
 11
10.32289383903898
 21
6.365969929900182
 31
0.0
  0
LINE
  5
379B
330
1F
100
AcDbEntity
  8
0
100
AcDbLine
 10
10.32289383903898
 20
6.365969929900182
 30
0.0
 11
10.32569965399989
 21
6.369626539148732
 31
0.0
  0
LINE
  5
379C
330
1F
100
AcDbEntity
  8
0
100
AcDbLine
 10
10.06802405525125
 20
6.357765032187677
 30
0.0
 11
10.08026935470323
 21
6.357765032187677
 31
0.0
  0
LINE
  5
379D
330
1F
100
AcDbEntity
  8
0
100
AcDbLine
 10
12.14066559849117
 20
6.319274010675487
 30
0.0
 11
12.15140094406061
 21
6.341043138001333
 31
0.0
  0
LINE
  5
379E
330
1F
100
AcDbEntity
  8
0
100
AcDbLine
 10
12.15140094406061
 20
6.341043138001333
 30
0.0
 11
12.15286913043866
 21
6.344020325460756
 31
0.0
  0
LINE
  5
379F
330
1F
100
AcDbEntity
  8
0
100
AcDbLine
 10
12.15286913043866
 20
6.344020325460756
 30
0.0
 11
12.15451971612323
 21
6.348882794089363
 31
0.0
  0
LINE
  5
37A0
330
1F
100
AcDbEntity
  8
0
100
AcDbLine
 10
12.15451971612323
 20
6.348882794089363
 30
0.0
 11
12.1617382172382
 21
6.370147812649291
 31
0.0
  0
LINE
  5
37A1
330
1F
100
AcDbEntity
  8
0
100
AcDbLine
 10
11.49153182985979
 20
6.240646288569367
 30
0.0
 11
11.49012828179796
 21
6.24274684668688
 31
0.0
  0
LINE
  5
37A2
330
1F
100
AcDbEntity
  8
0
100
AcDbLine
 10
11.49012828179796
 20
6.24274684668688
 30
0.0
 11
11.48654626102386
 21
6.248107719619397
 31
0.0
  0
LINE
  5
37A3
330
1F
100
AcDbEntity
  8
0
100
AcDbLine
 10
12.1617382172382
 20
6.370147812649291
 30
0.0
 11
12.16443313654773
 21
6.38369608692218
 31
0.0
  0
LINE
  5
37A4
330
1F
100
AcDbEntity
  8
0
100
AcDbLine
 10
12.16443313654773
 20
6.38369608692218
 30
0.0
 11
12.1671211063557
 21
6.397209423691387
 31
0.0
  0
LINE
  5
37A5
330
1F
100
AcDbEntity
  8
0
100
AcDbLine
 10
12.05451971612323
 20
6.905376474831756
 30
0.0
 11
11.96456690511401
 21
6.905376474831756
 31
0.0
  0
LINE
  5
37A6
330
1F
100
AcDbEntity
  8
0
100
AcDbLine
 10
11.47735511466591
 20
6.317746846686879
 30
0.0
 11
11.47735511466591
 21
6.28240954480704
 31
0.0
  0
LINE
  5
37A7
330
1F
100
AcDbEntity
  8
0
100
AcDbLine
 10
12.1671211063557
 20
6.397209423691387
 30
0.0
 11
12.16753505005775
 21
6.403524984149656
 31
0.0
  0
LINE
  5
37A8
330
1F
100
AcDbEntity
  8
0
100
AcDbLine
 10
12.16753505005775
 20
6.403524984149656
 30
0.0
 11
12.16892569506591
 21
6.42474212691922
 31
0.0
  0
LINE
  5
37A9
330
1F
100
AcDbEntity
  8
0
100
AcDbLine
 10
12.15050012579197
 20
6.886950905557817
 30
0.0
 11
12.15451971612323
 21
6.882367441233659
 31
0.0
  0
LINE
  5
37AA
330
1F
100
AcDbEntity
  8
0
100
AcDbLine
 10
12.15451971612323
 20
6.882367441233659
 30
0.0
 11
12.15592579578823
 21
6.880764114662953
 31
0.0
  0
LINE
  5
37AB
330
1F
100
AcDbEntity
  8
0
100
AcDbLine
 10
10.07139254240804
 20
6.35486865091001
 30
0.0
 11
10.06802405525125
 21
6.35486865091001
 31
0.0
  0
LINE
  5
37AC
330
1F
100
AcDbEntity
  8
0
100
AcDbLine
 10
10.06802405525125
 20
6.35486865091001
 30
0.0
 11
9.251765007506371
 21
6.35486865091001
 31
0.0
  0
LINE
  5
37AD
330
1F
100
AcDbEntity
  8
0
100
AcDbLine
 10
9.169261298820824
 20
6.188346266473837
 30
0.0
 11
9.871783241389813
 21
6.188346266473836
 31
0.0
  0
LINE
  5
37AE
330
1F
100
AcDbEntity
  8
0
100
AcDbLine
 10
10.291704752152
 20
8.283000044909352
 30
0.0
 11
10.27819787268527
 21
8.276339189080378
 31
0.0
  0
LINE
  5
37AF
330
1F
100
AcDbEntity
  8
0
100
AcDbLine
 10
10.27819787268527
 20
8.276339189080378
 30
0.0
 11
10.26283737097365
 21
8.26607562996895
 31
0.0
  0
LINE
  5
37B0
330
1F
100
AcDbEntity
  8
0
100
AcDbLine
 10
10.26283737097365
 20
8.26607562996895
 30
0.0
 11
10.25525614661022
 21
8.261010017800032
 31
0.0
  0
LINE
  5
37B1
330
1F
100
AcDbEntity
  8
0
100
AcDbLine
 10
10.8551091904836
 20
8.270297460467475
 30
0.0
 11
10.85719116688343
 21
8.266075629968952
 31
0.0
  0
LINE
  5
37B2
330
1F
100
AcDbEntity
  8
0
100
AcDbLine
 10
10.85719116688343
 20
8.266075629968952
 30
0.0
 11
10.85907819490354
 21
8.262249115678219
 31
0.0
  0
LINE
  5
37B3
330
1F
100
AcDbEntity
  8
0
100
AcDbLine
 10
10.25525614661022
 20
8.261010017800032
 30
0.0
 11
10.24704304475134
 21
8.253807320781634
 31
0.0
  0
LINE
  5
37B4
330
1F
100
AcDbEntity
  8
0
100
AcDbLine
 10
10.24704304475134
 20
8.253807320781634
 30
0.0
 11
10.23451154853918
 21
8.242817493557481
 31
0.0
  0
LINE
  5
37B5
330
1F
100
AcDbEntity
  8
0
100
AcDbLine
 10
10.23563858495107
 20
7.613028705255116
 30
0.0
 11
10.24874675343689
 21
7.613028705255118
 31
0.0
  0
LINE
  5
37B6
330
1F
100
AcDbEntity
  8
0
100
AcDbLine
 10
10.24874675343689
 20
7.613028705255118
 30
0.0
 11
10.37708854639345
 21
7.613028705255116
 31
0.0
  0
LINE
  5
37B7
330
1F
100
AcDbEntity
  8
0
100
AcDbLine
 10
10.86430033684154
 20
8.118252772014951
 30
0.0
 11
10.86430033684154
 21
8.16607562996895
 31
0.0
  0
LINE
  5
37B8
330
1F
100
AcDbEntity
  8
0
100
AcDbLine
 10
10.86430033684154
 20
8.16607562996895
 30
0.0
 11
10.86430033684154
 21
8.235995635279831
 31
0.0
  0
LINE
  5
37B9
330
1F
100
AcDbEntity
  8
0
100
AcDbLine
 10
10.16339141437756
 20
6.271584164139319
 30
0.0
 11
10.24704304475134
 21
6.271584164139319
 31
0.0
  0
LINE
  5
37BA
330
1F
100
AcDbEntity
  8
0
100
AcDbLine
 10
10.27230361185584
 20
6.265969929900182
 30
0.0
 11
10.27230361185584
 21
6.267673638585729
 31
0.0
  0
LINE
  5
37BB
330
1F
100
AcDbEntity
  8
0
100
AcDbLine
 10
10.29213250908331
 20
6.265969929900182
 30
0.0
 11
10.29213250908331
 21
6.267673638585729
 31
0.0
  0
LINE
  5
37BC
330
1F
100
AcDbEntity
  8
0
100
AcDbLine
 10
9.162965007506372
 20
7.152330670570115
 30
0.0
 11
9.074717081816181
 21
7.152330670570115
 31
0.0
  0
LINE
  5
37BD
330
1F
100
AcDbEntity
  8
0
100
AcDbLine
 10
9.598337039242068
 20
7.153693637518559
 30
0.0
 11
9.602628748838895
 21
7.152862052146859
 31
0.0
  0
LINE
  5
37BE
330
1F
100
AcDbEntity
  8
0
100
AcDbLine
 10
9.602628748838895
 20
7.152862052146859
 30
0.0
 11
9.60537114365497
 21
7.152330670570121
 31
0.0
  0
LINE
  5
37BF
330
1F
100
AcDbEntity
  8
0
100
AcDbLine
 10
9.60537114365497
 20
7.152330670570121
 30
0.0
 11
10.08471360499266
 21
7.152330670570121
 31
0.0
  0
LINE
  5
37C0
330
1F
100
AcDbEntity
  8
0
100
AcDbLine
 10
9.053316760339168
 20
8.296967703621687
 30
0.0
 11
9.026747988335795
 21
8.296967703621687
 31
0.0
  0
LINE
  5
37C1
330
1F
100
AcDbEntity
  8
0
100
AcDbLine
 10
10.22897305319669
 20
7.662270412772626
 30
0.0
 11
10.22897305319669
 21
7.156967703621686
 31
0.0
  0
LINE
  5
37C2
330
1F
100
AcDbEntity
  8
0
100
AcDbLine
 10
10.18745004638634
 20
7.156967703621686
 30
0.0
 11
9.648693779376873
 21
7.156967703621686
 31
0.0
  0
LINE
  5
37C3
330
1F
100
AcDbEntity
  8
0
100
AcDbLine
 10
9.646063927104126
 20
7.156967703621686
 30
0.0
 11
9.648693779376873
 21
7.156967703621686
 31
0.0
  0
LINE
  5
37C4
330
1F
100
AcDbEntity
  8
0
100
AcDbLine
 10
12.15451971612323
 20
8.077505495676495
 30
0.0
 11
12.15451971612323
 21
8.077623205742593
 31
0.0
  0
LINE
  5
37C5
330
1F
100
AcDbEntity
  8
0
100
AcDbLine
 10
12.15451971612323
 20
8.097216682837872
 30
0.0
 11
12.15451971612323
 21
8.097334392903972
 31
0.0
  0
LINE
  5
37C6
330
1F
100
AcDbEntity
  8
0
100
AcDbLine
 10
10.08471360499266
 20
7.152330670570121
 30
0.0
 11
10.08471360499266
 21
7.057298497193272
 31
0.0
  0
LINE
  5
37C7
330
1F
100
AcDbEntity
  8
0
100
AcDbLine
 10
9.240713604992667
 20
7.152330670570115
 30
0.0
 11
9.240713604992667
 21
7.057298497193272
 31
0.0
  0
LINE
  5
37C8
330
1F
100
AcDbEntity
  8
0
100
AcDbLine
 10
9.251765007506371
 20
6.357765032187677
 30
0.0
 11
10.06802405525125
 21
6.357765032187677
 31
0.0
  0
LINE
  5
37C9
330
1F
100
AcDbEntity
  8
0
100
AcDbLine
 10
12.10601686655639
 20
6.905376474831756
 30
0.0
 11
12.0915787638681
 21
6.905376474831756
 31
0.0
  0
LINE
  5
37CA
330
1F
100
AcDbEntity
  8
0
100
AcDbLine
 10
12.0915787638681
 20
6.905376474831756
 30
0.0
 11
12.05451971612323
 21
6.905376474831756
 31
0.0
  0
LINE
  5
37CB
330
1F
100
AcDbEntity
  8
0
100
AcDbLine
 10
11.47735511466591
 20
6.40015240807192
 30
0.0
 11
11.47735511466591
 21
6.34274684668688
 31
0.0
  0
LINE
  5
37CC
330
1F
100
AcDbEntity
  8
0
100
AcDbLine
 10
11.47735511466591
 20
6.34274684668688
 30
0.0
 11
11.47735511466591
 21
6.317746846686879
 31
0.0
  0
LINE
  5
37CD
330
1F
100
AcDbEntity
  8
0
100
AcDbLine
 10
10.2919901975747
 20
8.283140811013938
 30
0.0
 11
10.291704752152
 21
8.283000044909352
 31
0.0
  0
LINE
  5
37CE
330
1F
100
AcDbEntity
  8
0
100
AcDbLine
 10
9.166713604992665
 20
7.152330670570115
 30
0.0
 11
9.162965007506372
 21
7.152330670570115
 31
0.0
  0
LINE
  5
37CF
330
1F
100
AcDbEntity
  8
0
100
AcDbLine
 10
10.16339141437756
 20
7.152330670570121
 30
0.0
 11
10.17504542964859
 21
7.152330670570121
 31
0.0
  0
LINE
  5
37D0
330
1F
100
AcDbEntity
  8
0
100
AcDbLine
 10
10.22897305319669
 20
8.296967703621687
 30
0.0
 11
9.053316760339168
 21
8.296967703621687
 31
0.0
  0
LINE
  5
37D1
330
1F
100
AcDbEntity
  8
0
100
AcDbLine
 10
10.22897305319669
 20
8.296967703621685
 30
0.0
 11
10.22897305319669
 21
8.285306875497116
 31
0.0
  0
LINE
  5
37D2
330
1F
100
AcDbEntity
  8
0
100
AcDbLine
 10
10.22897305319669
 20
8.296967703621687
 30
0.0
 11
10.22897305319669
 21
7.662270412772626
 31
0.0
  0
LINE
  5
37D3
330
1F
100
AcDbEntity
  8
0
100
AcDbLine
 10
10.30294418747054
 20
8.288542721027864
 30
0.0
 11
10.29432011949643
 21
8.284289801352649
 31
0.0
  0
LINE
  5
37D4
330
1F
100
AcDbEntity
  8
0
100
AcDbLine
 10
10.29432011949643
 20
8.284289801352649
 30
0.0
 11
10.2919901975747
 21
8.283140811013938
 31
0.0
  0
LINE
  5
37D5
330
1F
100
AcDbEntity
  8
0
100
AcDbLine
 10
9.600099573384124
 20
7.152330670570115
 30
0.0
 11
9.240713604992667
 21
7.152330670570115
 31
0.0
  0
LINE
  5
37D6
330
1F
100
AcDbEntity
  8
0
100
AcDbLine
 10
9.240713604992667
 20
7.152330670570115
 30
0.0
 11
9.166713604992665
 21
7.152330670570115
 31
0.0
  0
LINE
  5
37D7
330
1F
100
AcDbEntity
  8
0
100
AcDbLine
 10
10.08471360499266
 20
7.152330670570121
 30
0.0
 11
10.15871360499266
 21
7.152330670570121
 31
0.0
  0
LINE
  5
37D8
330
1F
100
AcDbEntity
  8
0
100
AcDbLine
 10
10.15871360499266
 20
7.152330670570121
 30
0.0
 11
10.16339141437756
 21
7.152330670570121
 31
0.0
  0
LINE
  5
37D9
330
1F
100
AcDbEntity
  8
0
100
AcDbLine
 10
9.063276915726778
 20
7.156967703621686
 30
0.0
 11
9.58865940729472
 21
7.156967703621686
 31
0.0
  0
LINE
  5
37DA
330
1F
100
AcDbEntity
  8
0
100
AcDbLine
 10
10.08471360499266
 20
7.057298497193272
 30
0.0
 11
10.08471360499266
 21
6.960293535462165
 31
0.0
  0
LINE
  5
37DB
330
1F
100
AcDbEntity
  8
0
100
AcDbLine
 10
10.08471360499266
 20
6.754001533916451
 30
0.0
 11
10.08471360499266
 21
6.651696189105308
 31
0.0
  0
LINE
  5
37DC
330
1F
100
AcDbEntity
  8
0
100
AcDbLine
 10
9.240713604992667
 20
7.057298497193272
 30
0.0
 11
9.240713604992667
 21
6.960293535462167
 31
0.0
  0
LINE
  5
37DD
330
1F
100
AcDbEntity
  8
0
100
AcDbLine
 10
9.240713604992667
 20
6.45288763522053
 30
0.0
 11
9.240713604992667
 21
6.360026387267359
 31
0.0
  0
LINE
  5
37DE
330
1F
100
AcDbEntity
  8
0
100
AcDbLine
 10
9.58865940729472
 20
7.156967703621686
 30
0.0
 11
9.592966526917219
 21
7.156967703621686
 31
0.0
  0
LINE
  5
37DF
330
1F
100
AcDbEntity
  8
0
100
AcDbLine
 10
10.08471360499266
 20
6.960293535462165
 30
0.0
 11
10.08471360499266
 21
6.854234428207597
 31
0.0
  0
LINE
  5
37E0
330
1F
100
AcDbEntity
  8
0
100
AcDbLine
 10
10.08471360499266
 20
6.854234428207597
 30
0.0
 11
10.08471360499266
 21
6.754001533916451
 31
0.0
  0
LINE
  5
37E1
330
1F
100
AcDbEntity
  8
0
100
AcDbLine
 10
10.08471360499266
 20
6.651696189105308
 30
0.0
 11
10.08471360499266
 21
6.548010238253384
 31
0.0
  0
LINE
  5
37E2
330
1F
100
AcDbEntity
  8
0
100
AcDbLine
 10
9.240713604992667
 20
6.960293535462167
 30
0.0
 11
9.240713604992667
 21
6.854234428207597
 31
0.0
  0
LINE
  5
37E3
330
1F
100
AcDbEntity
  8
0
100
AcDbLine
 10
9.240713604992667
 20
6.854234428207597
 30
0.0
 11
9.240713604992667
 21
6.754001533916451
 31
0.0
  0
LINE
  5
37E4
330
1F
100
AcDbEntity
  8
0
100
AcDbLine
 10
9.240713604992667
 20
6.754001533916451
 30
0.0
 11
9.240713604992667
 21
6.651696189105308
 31
0.0
  0
LINE
  5
37E5
330
1F
100
AcDbEntity
  8
0
100
AcDbLine
 10
9.592966526917219
 20
7.156967703621686
 30
0.0
 11
9.617775760392717
 21
7.156967703621686
 31
0.0
  0
LINE
  5
37E6
330
1F
100
AcDbEntity
  8
0
100
AcDbLine
 10
9.617775760392717
 20
7.156967703621686
 30
0.0
 11
9.624850723668529
 21
7.156967703621686
 31
0.0
  0
LINE
  5
37E7
330
1F
100
AcDbEntity
  8
0
100
AcDbLine
 10
10.08471360499266
 20
6.548010238253384
 30
0.0
 11
10.08471360499266
 21
6.45288763522053
 31
0.0
  0
LINE
  5
37E8
330
1F
100
AcDbEntity
  8
0
100
AcDbLine
 10
10.08471360499266
 20
6.45288763522053
 30
0.0
 11
10.08471360499266
 21
6.361175225376094
 31
0.0
  0
LINE
  5
37E9
330
1F
100
AcDbEntity
  8
0
100
AcDbLine
 10
9.240713604992667
 20
6.651696189105308
 30
0.0
 11
9.240713604992667
 21
6.548010238253385
 31
0.0
  0
LINE
  5
37EA
330
1F
100
AcDbEntity
  8
0
100
AcDbLine
 10
9.240713604992667
 20
6.548010238253385
 30
0.0
 11
9.240713604992667
 21
6.45288763522053
 31
0.0
  0
LINE
  5
37EB
330
1F
100
AcDbEntity
  8
0
100
AcDbLine
 10
9.871783241389813
 20
6.188346266473836
 30
0.0
 11
10.16926129882082
 21
6.188346266473836
 31
0.0
  0
LINE
  5
37EC
330
1F
100
AcDbEntity
  8
0
100
AcDbLine
 10
10.24704304475134
 20
8.26607562996895
 30
0.0
 11
10.24704304475134
 21
8.253807320781634
 31
0.0
  0
LINE
  5
37ED
330
1F
100
AcDbEntity
  8
0
100
AcDbLine
 10
10.24704304475134
 20
6.340969929900182
 30
0.0
 11
10.24704304475134
 21
6.265969929900182
 31
0.0
  0
LINE
  5
37EE
330
1F
100
AcDbEntity
  8
0
100
AcDbLine
 10
10.24704304475134
 20
6.340969929900182
 30
0.0
 11
10.24704304475134
 21
6.359271200089404
 31
0.0
  0
LINE
  5
37EF
330
1F
100
AcDbEntity
  8
0
100
AcDbLine
 10
9.169261298820824
 20
6.188346266473837
 30
0.0
 11
9.169261298820824
 21
6.264891002413477
 31
0.0
  0
LINE
  5
37F0
330
1F
100
AcDbEntity
  8
0
100
AcDbLine
 10
12.05451971612323
 20
8.140352546755647
 30
0.0
 11
12.0915787638681
 21
8.140352546755647
 31
0.0
  0
LINE
  5
37F1
330
1F
100
AcDbEntity
  8
0
100
AcDbLine
 10
12.15451971612323
 20
8.140352546755647
 30
0.0
 11
12.0915787638681
 21
8.140352546755647
 31
0.0
  0
LINE
  5
37F2
330
1F
100
AcDbEntity
  8
0
100
AcDbLine
 10
10.16926129882082
 20
6.188346266473836
 30
0.0
 11
10.16926129882082
 21
6.267346266473837
 31
0.0
  0
LINE
  5
37F3
330
1F
100
AcDbEntity
  8
0
100
AcDbLine
 10
10.17742898529126
 20
6.364266221214634
 30
0.0
 11
10.24321023023643
 21
6.364266221214636
 31
0.0
  0
LINE
  5
37F4
330
1F
100
AcDbEntity
  8
0
100
AcDbLine
 10
9.026747988335795
 20
7.156967703621688
 30
0.0
 11
9.063276915726778
 21
7.156967703621686
 31
0.0
  0
LINE
  5
37F5
330
1F
100
AcDbEntity
  8
0
100
AcDbLine
 10
10.22897305319669
 20
8.296967703621685
 30
0.0
 11
10.19824988174418
 21
8.296967703621685
 31
0.0
  0
LINE
  5
37F6
330
1F
100
AcDbEntity
  8
0
100
AcDbLine
 10
10.22897305319669
 20
7.156967703621686
 30
0.0
 11
10.18745004638634
 21
7.156967703621686
 31
0.0
  0
LINE
  5
37F7
330
1F
100
AcDbEntity
  8
0
100
AcDbLine
 10
9.646063927104126
 20
7.156967703621686
 30
0.0
 11
9.624850723668529
 21
7.156967703621686
 31
0.0
  0
LINE
  5
37F8
330
1F
100
AcDbEntity
  8
0
100
AcDbLine
 10
12.15451971612323
 20
8.077623205742593
 30
0.0
 11
12.15451971612322
 21
8.26607562996895
 31
0.0
  0
LINE
  5
37F9
330
1F
100
AcDbEntity
  8
0
100
AcDbLine
 10
12.15451971612322
 20
8.26607562996895
 30
0.0
 11
12.143704752152
 21
8.266075629968952
 31
0.0
  0
LINE
  5
37FA
330
1F
100
AcDbEntity
  8
0
100
AcDbLine
 10
9.653527110821965
 20
6.233028437995988
 30
0.0
 11
9.653527110821965
 21
6.219928868032491
 31
0.0
  0
LINE
  5
37FB
330
1F
100
AcDbEntity
  8
0
100
AcDbLine
 10
9.664306615029229
 20
6.233028437995988
 30
0.0
 11
9.664306615029229
 21
6.219928868032491
 31
0.0
  0
LINE
  5
37FC
330
1F
100
AcDbEntity
  8
0
100
AcDbLine
 10
9.399930724005248
 20
6.233028437995988
 30
0.0
 11
9.399930724005248
 21
6.219928868032491
 31
0.0
  0
LINE
  5
37FD
330
1F
100
AcDbEntity
  8
0
100
AcDbLine
 10
9.410710228212511
 20
6.233028437995988
 30
0.0
 11
9.410710228212511
 21
6.219928868032491
 31
0.0
  0
LINE
  5
37FE
330
1F
100
AcDbEntity
  8
0
100
AcDbLine
 10
9.918089841219423
 20
6.233028437995988
 30
0.0
 11
9.918089841219423
 21
6.219928868032491
 31
0.0
  0
LINE
  5
37FF
330
1F
100
AcDbEntity
  8
0
100
AcDbLine
 10
9.928869345426686
 20
6.233028437995988
 30
0.0
 11
9.928869345426686
 21
6.219928868032491
 31
0.0
  0
LWPOLYLINE
  5
3800
330
1F
100
AcDbEntity
  8
0
100
AcDbPolyline
 90
        4
 70
     1
 43
0.0
 10
10.07460671448605
 20
6.355754104269842
 10
10.16663924891844
 20
6.355754104269842
 10
10.16663924891844
 20
6.267346266473837
 10
10.07460671448605
 20
6.267346266473837
  0
LWPOLYLINE
  5
3801
330
1F
100
AcDbEntity
  8
0
100
AcDbPolyline
 90
        4
 70
     1
 43
0.0
 10
9.159035959518643
 20
6.355754104269843
 10
9.251068493951027
 20
6.355754104269843
 10
9.251068493951027
 20
6.267346266473838
 10
9.159035959518643
 20
6.267346266473838
  0
DIMENSION
  5
3802
102
{ACAD_XDICTIONARY
360
380D
102
}
102
{ACAD_REACTORS
330
3815
102
}
330
1F
100
AcDbEntity
  8
WYMIAR
100
AcDbDimension
  2
*D3
 10
13.52498451223652
 20
10.20901644024933
 30
0.0
 11
10.52498451223652
 21
10.41901644024933
 31
0.0
 70
    32
 71
     5
 42
6.0
  3
AR SKALA 1-50
100
AcDbAlignedDimension
 13
7.524984512236525
 23
9.746558310226964
 33
0.0
 14
13.52498451223652
 24
9.746558310226962
 34
0.0
100
AcDbRotatedDimension
  0
DIMENSION
  5
3816
102
{ACAD_XDICTIONARY
360
3821
102
}
102
{ACAD_REACTORS
330
3829
102
}
330
1F
100
AcDbEntity
  8
WYMIAR
100
AcDbDimension
  2
*D4
 10
6.870129821483903
 20
4.646558310226962
 30
0.0
 11
6.660129821483902
 21
7.196558310226965
 31
0.0
 70
    32
 71
     5
 42
5.100000000000001
  3
AR SKALA 1-50
100
AcDbAlignedDimension
 13
7.524984512236525
 23
9.746558310226964
 33
0.0
 14
7.524984512236525
 24
4.646558310226962
 34
0.0
 50
90.0
100
AcDbRotatedDimension
  0
VIEWPORT
  5
7CA
330
1B
100
AcDbEntity
 67
     1
  8
0
100
AcDbViewport
 10
134.3135778329113
 20
98.39478896354101
 30
0.0
 40
468.2050053512686
 41
237.0178514013583
 68
     1
 69
     1
 12
134.3135778329113
 22
98.39478896354101
 13
0.0
 23
0.0
 14
10.0
 24
10.0
 15
10.0
 25
10.0
 16
0.0
 26
0.0
 36
1.0
 17
0.0
 27
0.0
 37
0.0
 42
50.0
 43
0.0
 44
0.0
 45
237.0178514013583
 50
0.0
 51
0.0
 72
   100
 90
   819232
  1

281
     0
 71
     1
 74
     0
110
0.0
120
0.0
130
0.0
111
1.0
121
0.0
131
0.0
112
0.0
122
1.0
132
0.0
 79
     0
146
0.0
170
     0
  0
VIEWPORT
  5
99A
330
1B
100
AcDbEntity
 67
     1
  8
Defpoints
100
AcDbViewport
 10
151.5855934681565
 20
104.8621726199724
 30
0.0
 40
290.0480970456033
 41
203.1599664902751
 68
     2
 69
     2
 12
11.89198244027003
 22
7.596804574712935
 13
0.0
 23
0.0
 14
0.5
 24
0.5
 15
0.5
 25
0.5
 16
0.0
 26
0.0
 36
1.0
 17
0.0
 27
0.0
 37
-1000.0
 42
50.0
 43
4.148984367261674
 44
9.217858496371269
 45
10.15799926224799
 50
0.0
 51
0.0
 72
   100
 90
   819296
  1

281
     0
 71
     1
 74
     0
110
0.0
120
0.0
130
0.0
111
1.0
121
0.0
131
0.0
112
0.0
122
1.0
132
0.0
 79
     0
146
0.0
170
     0
  0
ENDSEC
  0
SECTION
  2
OBJECTS
  0
DICTIONARY
  5
C
330
0
100
AcDbDictionary
281
     1
  3
ACAD_COLOR
350
4B9
  3
ACAD_GROUP
350
D
  3
ACAD_LAYOUT
350
1A
  3
ACAD_MATERIAL
350
3B
  3
ACAD_MLEADERSTYLE
350
489
  3
ACAD_MLINESTYLE
350
17
  3
ACAD_PLOTSETTINGS
350
19
  3
ACAD_PLOTSTYLENAME
350
E
  3
ACAD_SCALELIST
350
2D4E
  3
ACAD_TABLESTYLE
350
4BA
  3
ACAD_VISUALSTYLE
350
2A
  3
ACDB_RECOMPOSE_DATA
350
2D87
  3
AcDbVariableDictionary
350
487
  0
DICTIONARY
  5
84C
330
8
100
AcDbDictionary
280
     1
281
     1
  0
DICTIONARY
  5
7D1
330
2
100
AcDbDictionary
280
     1
281
     1
  3
ACAD_LAYERFILTERS
360
382E
  3
ACAD_LAYERSTATES
360
7D2
  3
ACLYDICTIONARY
360
382D
  0
DICTIONARY
  5
2D7F
330
10
100
AcDbDictionary
280
     1
281
     1
  3
ADSK_XREC_LAYER_RECONCILED
360
2D80
  0
DICTIONARY
  5
2D81
330
87B
100
AcDbDictionary
280
     1
281
     1
  3
ADSK_XREC_LAYER_RECONCILED
360
2D82
  0
DICTIONARY
  5
2D83
330
87D
100
AcDbDictionary
280
     1
281
     1
  3
ADSK_XREC_LAYER_RECONCILED
360
2D84
  0
DICTIONARY
  5
5F8
330
1F
100
AcDbDictionary
280
     1
281
     1
  3
ACAD_SORTENTS
360
5F9
  0
DICTIONARY
  5
380D
330
3802
100
AcDbDictionary
280
     1
281
     1
  3
ACAD_DIMASSOC
360
3815
  0
DICTIONARY
  5
3821
330
3816
100
AcDbDictionary
280
     1
281
     1
  3
ACAD_DIMASSOC
360
3829
  0
DICTIONARY
  5
4B9
102
{ACAD_REACTORS
330
C
102
}
330
C
100
AcDbDictionary
281
     1
  0
DICTIONARY
  5
D
102
{ACAD_REACTORS
330
C
102
}
330
C
100
AcDbDictionary
281
     1
  0
DICTIONARY
  5
1A
102
{ACAD_REACTORS
330
C
102
}
330
C
100
AcDbDictionary
281
     1
  3
Layout1
350
1E
  3
Model
350
22
  0
DICTIONARY
  5
3B
102
{ACAD_REACTORS
330
C
102
}
330
C
100
AcDbDictionary
281
     1
  3
ByBlock
350
3D
  3
ByLayer
350
3C
  3
Global
350
3E
  0
DICTIONARY
  5
489
102
{ACAD_REACTORS
330
C
102
}
330
C
100
AcDbDictionary
281
     1
  3
Standard
350
2D70
  0
DICTIONARY
  5
17
102
{ACAD_REACTORS
330
C
102
}
330
C
100
AcDbDictionary
281
     1
  3
Standard
350
18
  0
DICTIONARY
  5
19
102
{ACAD_REACTORS
330
C
102
}
330
C
100
AcDbDictionary
281
     1
  0
ACDBDICTIONARYWDFLT
  5
E
102
{ACAD_REACTORS
330
C
102
}
330
C
100
AcDbDictionary
281
     1
  3
Normal
350
F
100
AcDbDictionaryWithDefault
340
F
  0
DICTIONARY
  5
2D4E
102
{ACAD_REACTORS
330
C
102
}
330
C
100
AcDbDictionary
281
     1
  3
A0
350
2D4F
  3
A1
350
2D50
  3
A2
350
2D51
  3
A3
350
2D52
  3
A4
350
2D53
  3
A5
350
2D54
  3
A6
350
2D55
  3
A7
350
2D56
  3
A8
350
2D57
  3
A9
350
2D58
  3
B0
350
2D59
  3
B1
350
2D5A
  3
B2
350
2D5B
  3
B3
350
2D5C
  3
B4
350
2D5D
  3
B5
350
2D5E
  3
B6
350
2D5F
  3
B7
350
2D60
  3
B8
350
2D61
  3
B9
350
2D62
  3
C0
350
2D63
  3
C1
350
2D64
  3
C2
350
2D65
  3
C3
350
2D66
  3
C4
350
2D67
  3
C5
350
2D68
  3
C6
350
2D69
  3
C7
350
2D6A
  3
C8
350
2D6B
  3
C9
350
2D6C
  3
D0
350
2D6D
  3
D1
350
2D6E
  3
D2
350
2D6F
  0
DICTIONARY
  5
4BA
102
{ACAD_REACTORS
330
C
102
}
330
C
100
AcDbDictionary
281
     1
  3
Standard
350
4BB
  0
DICTIONARY
  5
2A
102
{ACAD_REACTORS
330
C
102
}
330
C
100
AcDbDictionary
281
     1
  3
2dWireframe
350
2F
  3
3D Hidden
350
A47
  3
3dWireframe
350
A48
  3
Basic
350
32
  3
Brighten
350
36
  3
ColorChange
350
3A
  3
Conceptual
350
A4B
  3
Dim
350
35
  3
Facepattern
350
39
  3
Flat
350
2B
  3
FlatWithEdges
350
2C
  3
Gouraud
350
2D
  3
GouraudWithEdges
350
2E
  3
Linepattern
350
38
  3
Realistic
350
A4C
  3
Thicken
350
37
  0
XRECORD
  5
2D87
102
{ACAD_REACTORS
330
C
102
}
330
C
100
AcDbXrecord
280
     1
 90
        1
330
4BB
  0
DICTIONARY
  5
487
102
{ACAD_REACTORS
330
C
102
}
330
C
100
AcDbDictionary
281
     1
  3
CANNOSCALE
350
2D8A
  3
CMLEADERSTYLE
350
2D88
  3
CTABLESTYLE
350
5FE
  3
DIMASSOC
350
48A
  3
HIDETEXT
350
48B
  3
INDEXCTL
350
86B
  3
LIGHTINGUNITS
350
2D8B
  3
MSLTSCALE
350
2D89
  3
SORTENTS
350
86A
  0
DICTIONARY
  5
382E
102
{ACAD_REACTORS
330
7D1
102
}
330
7D1
100
AcDbDictionary
281
     1
  0
DICTIONARY
  5
7D2
102
{ACAD_REACTORS
330
7D1
102
}
330
7D1
100
AcDbDictionary
281
     1
  0
DICTIONARY
  5
382D
102
{ACAD_REACTORS
330
7D1
102
}
330
7D1
100
AcDbDictionary
281
     1
1001
ACAD
1000
<All
  0
XRECORD
  5
2D80
102
{ACAD_REACTORS
330
2D7F
102
}
330
2D7F
100
AcDbXrecord
280
     1
290
     1
  0
XRECORD
  5
2D82
102
{ACAD_REACTORS
330
2D81
102
}
330
2D81
100
AcDbXrecord
280
     1
290
     1
  0
XRECORD
  5
2D84
102
{ACAD_REACTORS
330
2D83
102
}
330
2D83
100
AcDbXrecord
280
     1
290
     1
  0
SORTENTSTABLE
  5
5F9
102
{ACAD_REACTORS
330
5F8
102
}
330
5F8
100
AcDbSortentsTable
330
1F
  0
DIMASSOC
  5
3815
102
{ACAD_REACTORS
330
380D
102
}
330
380D
100
AcDbDimAssoc
330
3802
 90
        3
 70
     0
 71
     0
  1
AcDbOsnapPointRef
 72
    13
331
357C
 73
     2
 91
        0
 40
0.0
 10
0.0
 20
0.0
 30
2.000000000000000E+50
 75
     0
  1
AcDbOsnapPointRef
 72
    13
331
357B
 73
     2
 91
        0
 40
0.0
 10
0.0
 20
0.0
 30
2.000000000000000E+50
 75
     0
  0
DIMASSOC
  5
3829
102
{ACAD_REACTORS
330
3821
102
}
330
3821
100
AcDbDimAssoc
330
3816
 90
        3
 70
     0
 71
     0
  1
AcDbOsnapPointRef
 72
    13
331
357C
 73
     2
 91
        0
 40
0.0
 10
0.0
 20
0.0
 30
2.000000000000000E+50
 75
     0
  1
AcDbOsnapPointRef
 72
     1
331
357C
 73
     2
 91
        0
 40
1.0
 10
0.0
 20
0.0
 30
2.000000000000000E+50
 75
     0
  0
LAYOUT
  5
1E
102
{ACAD_XDICTIONARY
360
7D4
102
}
102
{ACAD_REACTORS
330
1A
102
}
330
1A
100
AcDbPlotSettings
  1

  2
Bullzip PDF Printer
  4
A4
  6

 40
3.174999952316284
 41
3.174999952316284
 42
3.175003051757812
 43
3.17498779296875
 44
209.8886566162109
 45
297.0530090332031
 46
0.0
 47
0.0
 48
6.561544945354853
 49
3.282189374834842
140
296.6096419909582
141
206.4421558651099
142
1.0
143
1.0
 70
   672
 72
     1
 73
     1
 74
     4
  7
monochrome.ctb
 75
    16
147
25.4
 76
     0
 77
     2
 78
   300
148
-6.561544945354853
149
-3.282189374834842
100
AcDbLayout
  1
Layout1
 70
     0
 71
     1
 10
3.386557152386103
 20
0.1071894225185588
 11
300.4395661855892
 21
209.9958460387295
 12
0.0
 22
0.0
 32
0.0
 14
6.561544945354853
 24
3.282189374834842
 34
0.0
 15
296.6096419909582
 25
206.4421558651099
 35
0.0
146
0.0
 13
0.0
 23
0.0
 33
0.0
 16
1.0
 26
0.0
 36
0.0
 17
0.0
 27
1.0
 37
0.0
 76
     0
330
1B
331
7CA
1001
ACAD_PSEXT
1000
Bullzip PDF Printer
1000
Bullzip PDF Printer
1000
BULLZIP
1000
Bullzip PDF Printer 7.2.0.1338
1070
     0
  0
LAYOUT
  5
22
102
{ACAD_REACTORS
330
1A
102
}
330
1A
100
AcDbPlotSettings
  1

  2
none_device
  4
Letter_(8.50_x_11.00_Inches)
  6

 40
6.349999904632568
 41
6.349999904632568
 42
6.350006103515625
 43
6.350006103515625
 44
215.8999938964844
 45
279.3999938964844
 46
0.0
 47
0.0
 48
0.0
 49
0.0
140
0.0
141
0.0
142
1.0
143
1.435318452717828
 70
 11952
 72
     0
 73
     1
 74
     0
  7

 75
     0
147
0.696709498931379
 76
     0
 77
     2
 78
   300
148
-128.7156245773759
149
-71.75129754640824
100
AcDbLayout
  1
Model
 70
     1
 71
     0
 10
0.0
 20
0.0
 11
12.0
 21
9.0
 12
0.0
 22
0.0
 32
0.0
 14
1.000000000000000E+20
 24
1.000000000000000E+20
 34
1.000000000000000E+20
 15
-1.000000000000000E+20
 25
-1.000000000000000E+20
 35
-1.000000000000000E+20
146
0.0
 13
0.0
 23
0.0
 33
0.0
 16
1.0
 26
0.0
 36
0.0
 17
0.0
 27
1.0
 37
0.0
 76
     0
330
1F
331
29
1001
ACAD_PSEXT
1000
None
1000
None
1000
Not applicable
1000
The layout will not be plotted unless a new plotter configuration name is selected.
1070
     0
  0
MATERIAL
  5
3D
102
{ACAD_XDICTIONARY
360
3846
102
}
102
{ACAD_REACTORS
330
3B
102
}
330
3B
100
AcDbMaterial
  1
ByBlock
 73
     1
 78
     1
172
     1
176
     1
270
     1
274
     1
  0
MATERIAL
  5
3C
102
{ACAD_XDICTIONARY
360
3844
102
}
102
{ACAD_REACTORS
330
3B
102
}
330
3B
100
AcDbMaterial
  1
ByLayer
 73
     1
 78
     1
172
     1
176
     1
270
     1
274
     1
  0
MATERIAL
  5
3E
102
{ACAD_XDICTIONARY
360
3848
102
}
102
{ACAD_REACTORS
330
3B
102
}
330
3B
100
AcDbMaterial
  1
Global
 73
     1
 78
     1
172
     1
176
     1
270
     1
274
     1
  0
MLEADERSTYLE
  5
2D70
102
{ACAD_REACTORS
330
489
102
}
330
489
100
AcDbMLeaderStyle
170
     2
171
     1
172
     0
 90
        2
 40
0.0
 41
0.0
173
     1
 91
-1056964608
340
14
 92
       -2
290
     1
 42
0.09
291
     1
 43
0.36
  3
Standard
 44
0.18
300

342
11
174
     1
178
     6
175
     1
176
     0
 93
-1056964608
 45
0.18
292
     0
297
     0
 46
0.18
 94
-1056964608
 47
1.0
 49
1.0
140
1.0
293
     1
141
0.0
294
     1
177
     0
142
1.0
295
     0
296
     0
143
0.125
1001
ACAD_MLEADERVER
1070
     2
  0
MLINESTYLE
  5
18
102
{ACAD_REACTORS
330
17
102
}
330
17
100
AcDbMlineStyle
  2
STANDARD
 70
     0
  3

 62
   256
 51
90.0
 52
90.0
 71
     2
 49
0.5
 62
   256
  6
BYLAYER
 49
-0.5
 62
   256
  6
BYLAYER
  0
ACDBPLACEHOLDER
  5
F
102
{ACAD_REACTORS
330
E
102
}
330
E
  0
SCALE
  5
2D4F
102
{ACAD_REACTORS
330
2D4E
102
}
330
2D4E
100
AcDbScale
 70
     0
300
1:1
140
1.0
141
1.0
290
     1
  0
SCALE
  5
2D50
102
{ACAD_REACTORS
330
2D4E
102
}
330
2D4E
100
AcDbScale
 70
     0
300
1:2
140
1.0
141
2.0
290
     0
  0
SCALE
  5
2D51
102
{ACAD_REACTORS
330
2D4E
102
}
330
2D4E
100
AcDbScale
 70
     0
300
1:4
140
1.0
141
4.0
290
     0
  0
SCALE
  5
2D52
102
{ACAD_REACTORS
330
2D4E
102
}
330
2D4E
100
AcDbScale
 70
     0
300
1:5
140
1.0
141
5.0
290
     0
  0
SCALE
  5
2D53
102
{ACAD_REACTORS
330
2D4E
102
}
330
2D4E
100
AcDbScale
 70
     0
300
1:8
140
1.0
141
8.0
290
     0
  0
SCALE
  5
2D54
102
{ACAD_REACTORS
330
2D4E
102
}
330
2D4E
100
AcDbScale
 70
     0
300
1:10
140
1.0
141
10.0
290
     0
  0
SCALE
  5
2D55
102
{ACAD_REACTORS
330
2D4E
102
}
330
2D4E
100
AcDbScale
 70
     0
300
1:16
140
1.0
141
16.0
290
     0
  0
SCALE
  5
2D56
102
{ACAD_REACTORS
330
2D4E
102
}
330
2D4E
100
AcDbScale
 70
     0
300
1:20
140
1.0
141
20.0
290
     0
  0
SCALE
  5
2D57
102
{ACAD_REACTORS
330
2D4E
102
}
330
2D4E
100
AcDbScale
 70
     0
300
1:30
140
1.0
141
30.0
290
     0
  0
SCALE
  5
2D58
102
{ACAD_REACTORS
330
2D4E
102
}
330
2D4E
100
AcDbScale
 70
     0
300
1:40
140
1.0
141
40.0
290
     0
  0
SCALE
  5
2D59
102
{ACAD_REACTORS
330
2D4E
102
}
330
2D4E
100
AcDbScale
 70
     0
300
1:50
140
1.0
141
50.0
290
     0
  0
SCALE
  5
2D5A
102
{ACAD_REACTORS
330
2D4E
102
}
330
2D4E
100
AcDbScale
 70
     0
300
1:100
140
1.0
141
100.0
290
     0
  0
SCALE
  5
2D5B
102
{ACAD_REACTORS
330
2D4E
102
}
330
2D4E
100
AcDbScale
 70
     0
300
2:1
140
2.0
141
1.0
290
     0
  0
SCALE
  5
2D5C
102
{ACAD_REACTORS
330
2D4E
102
}
330
2D4E
100
AcDbScale
 70
     0
300
4:1
140
4.0
141
1.0
290
     0
  0
SCALE
  5
2D5D
102
{ACAD_REACTORS
330
2D4E
102
}
330
2D4E
100
AcDbScale
 70
     0
300
8:1
140
8.0
141
1.0
290
     0
  0
SCALE
  5
2D5E
102
{ACAD_REACTORS
330
2D4E
102
}
330
2D4E
100
AcDbScale
 70
     0
300
10:1
140
10.0
141
1.0
290
     0
  0
SCALE
  5
2D5F
102
{ACAD_REACTORS
330
2D4E
102
}
330
2D4E
100
AcDbScale
 70
     0
300
100:1
140
100.0
141
1.0
290
     0
  0
SCALE
  5
2D60
102
{ACAD_REACTORS
330
2D4E
102
}
330
2D4E
100
AcDbScale
 70
     0
300
1/128" = 1'-0"
140
0.0078125
141
12.0
290
     0
  0
SCALE
  5
2D61
102
{ACAD_REACTORS
330
2D4E
102
}
330
2D4E
100
AcDbScale
 70
     0
300
1/64" = 1'-0"
140
0.015625
141
12.0
290
     0
  0
SCALE
  5
2D62
102
{ACAD_REACTORS
330
2D4E
102
}
330
2D4E
100
AcDbScale
 70
     0
300
1/32" = 1'-0"
140
0.03125
141
12.0
290
     0
  0
SCALE
  5
2D63
102
{ACAD_REACTORS
330
2D4E
102
}
330
2D4E
100
AcDbScale
 70
     0
300
1/16" = 1'-0"
140
0.0625
141
12.0
290
     0
  0
SCALE
  5
2D64
102
{ACAD_REACTORS
330
2D4E
102
}
330
2D4E
100
AcDbScale
 70
     0
300
3/32" = 1'-0"
140
0.09375
141
12.0
290
     0
  0
SCALE
  5
2D65
102
{ACAD_REACTORS
330
2D4E
102
}
330
2D4E
100
AcDbScale
 70
     0
300
1/8" = 1'-0"
140
0.125
141
12.0
290
     0
  0
SCALE
  5
2D66
102
{ACAD_REACTORS
330
2D4E
102
}
330
2D4E
100
AcDbScale
 70
     0
300
3/16" = 1'-0"
140
0.1875
141
12.0
290
     0
  0
SCALE
  5
2D67
102
{ACAD_REACTORS
330
2D4E
102
}
330
2D4E
100
AcDbScale
 70
     0
300
1/4" = 1'-0"
140
0.25
141
12.0
290
     0
  0
SCALE
  5
2D68
102
{ACAD_REACTORS
330
2D4E
102
}
330
2D4E
100
AcDbScale
 70
     0
300
3/8" = 1'-0"
140
0.375
141
12.0
290
     0
  0
SCALE
  5
2D69
102
{ACAD_REACTORS
330
2D4E
102
}
330
2D4E
100
AcDbScale
 70
     0
300
1/2" = 1'-0"
140
0.5
141
12.0
290
     0
  0
SCALE
  5
2D6A
102
{ACAD_REACTORS
330
2D4E
102
}
330
2D4E
100
AcDbScale
 70
     0
300
3/4" = 1'-0"
140
0.75
141
12.0
290
     0
  0
SCALE
  5
2D6B
102
{ACAD_REACTORS
330
2D4E
102
}
330
2D4E
100
AcDbScale
 70
     0
300
1" = 1'-0"
140
1.0
141
12.0
290
     0
  0
SCALE
  5
2D6C
102
{ACAD_REACTORS
330
2D4E
102
}
330
2D4E
100
AcDbScale
 70
     0
300
1-1/2" = 1'-0"
140
1.5
141
12.0
290
     0
  0
SCALE
  5
2D6D
102
{ACAD_REACTORS
330
2D4E
102
}
330
2D4E
100
AcDbScale
 70
     0
300
3" = 1'-0"
140
3.0
141
12.0
290
     0
  0
SCALE
  5
2D6E
102
{ACAD_REACTORS
330
2D4E
102
}
330
2D4E
100
AcDbScale
 70
     0
300
6" = 1'-0"
140
6.0
141
12.0
290
     0
  0
SCALE
  5
2D6F
102
{ACAD_REACTORS
330
2D4E
102
}
330
2D4E
100
AcDbScale
 70
     0
300
1'-0" = 1'-0"
140
12.0
141
12.0
290
     0
  0
TABLESTYLE
  5
4BB
102
{ACAD_XDICTIONARY
360
2D85
102
}
102
{ACAD_REACTORS
330
4BA
102
}
330
4BA
100
AcDbTableStyle
  3
Standard
 70
     0
 71
     0
 40
0.06
 41
0.06
280
     0
281
     0
  7
Standard
140
0.18
170
     2
 62
     0
 63
     7
283
     0
274
    -2
284
     1
 64
     0
275
    -2
285
     1
 65
     0
276
    -2
286
     1
 66
     0
277
    -2
287
     1
 67
     0
278
    -2
288
     1
 68
     0
279
    -2
289
     1
 69
     0
  7
Standard
140
0.25
170
     5
 62
     0
 63
     7
283
     0
274
    -2
284
     1
 64
     0
275
    -2
285
     1
 65
     0
276
    -2
286
     1
 66
     0
277
    -2
287
     1
 67
     0
278
    -2
288
     1
 68
     0
279
    -2
289
     1
 69
     0
  7
Standard
140
0.18
170
     5
 62
     0
 63
     7
283
     0
274
    -2
284
     1
 64
     0
275
    -2
285
     1
 65
     0
276
    -2
286
     1
 66
     0
277
    -2
287
     1
 67
     0
278
    -2
288
     1
 68
     0
279
    -2
289
     1
 69
     0
  0
VISUALSTYLE
  5
2F
102
{ACAD_XDICTIONARY
360
49A
102
}
102
{ACAD_REACTORS
330
2A
102
}
330
2A
100
AcDbVisualStyle
  2
2dWireframe
 70
     4
 71
     0
 72
     2
 73
     0
 90
        0
 40
-0.6
 41
-30.0
 62
     5
 63
     7
 74
     1
 91
        4
 64
     7
 65
   257
 75
     1
175
     1
 42
1.0
 92
        0
 66
   257
 43
1.0
 76
     1
 77
     6
 78
     2
 67
     7
 79
     5
170
     0
171
     0
290
     0
174
     0
 93
        1
 44
0.0
173
     0
291
     0
 45
0.0
1001
ACAD
1000
AcDbSavedByObjectVersion
1070
     0
  0
VISUALSTYLE
  5
A47
102
{ACAD_REACTORS
330
2A
102
}
330
2A
100
AcDbVisualStyle
  2
3D Hidden
 70
     6
 71
     1
 72
     2
 73
     2
 90
        0
 40
-0.6
 41
-30.0
 62
     5
 63
     7
 74
     2
 91
        2
 64
     7
 65
   257
 75
     2
175
     1
 42
40.0
 92
        0
 66
   257
 43
1.0
 76
     1
 77
     6
 78
     2
 67
     7
 79
     3
170
     0
171
     0
290
     0
174
     0
 93
        1
 44
0.0
173
     0
291
     0
 45
0.0
1001
ACAD
1000
AcDbSavedByObjectVersion
1070
     0
  0
VISUALSTYLE
  5
A48
102
{ACAD_XDICTIONARY
360
A49
102
}
102
{ACAD_REACTORS
330
2A
102
}
330
2A
100
AcDbVisualStyle
  2
3dWireframe
 70
     5
 71
     0
 72
     2
 73
     0
 90
        0
 40
-0.6
 41
-30.0
 62
     5
 63
     7
 74
     1
 91
        4
 64
     7
 65
   257
 75
     1
175
     1
 42
1.0
 92
        0
 66
   257
 43
1.0
 76
     1
 77
     6
 78
     2
 67
     7
 79
     5
170
     0
171
     0
290
     0
174
     0
 93
        1
 44
0.0
173
     0
291
     0
 45
0.0
1001
ACAD
1000
AcDbSavedByObjectVersion
1070
     0
  0
VISUALSTYLE
  5
32
102
{ACAD_XDICTIONARY
360
4A0
102
}
102
{ACAD_REACTORS
330
2A
102
}
330
2A
100
AcDbVisualStyle
  2
Basic
 70
     7
 71
     1
 72
     0
 73
     1
 90
        0
 40
-0.6
 41
-30.0
 62
     5
 63
     7
 74
     0
 91
        4
 64
     7
 65
   257
 75
     1
175
     1
 42
1.0
 92
        8
 66
     7
 43
1.0
 76
     1
 77
     6
 78
     2
 67
     7
 79
     5
170
     0
171
     0
290
     0
174
     0
 93
        1
 44
0.0
173
     0
291
     1
 45
0.0
1001
ACAD
1000
AcDbSavedByObjectVersion
1070
     0
  0
VISUALSTYLE
  5
36
102
{ACAD_XDICTIONARY
360
4A8
102
}
102
{ACAD_REACTORS
330
2A
102
}
330
2A
100
AcDbVisualStyle
  2
Brighten
 70
    12
 71
     2
 72
     2
 73
     0
 90
        0
 40
-0.6
 41
-30.0
 62
     5
 63
     7
 74
     1
 91
        4
 64
     7
 65
   257
 75
     1
175
     1
 42
1.0
 92
        8
 66
     7
 43
1.0
 76
     1
 77
     6
 78
     2
 67
     7
 79
     5
170
     0
171
     0
290
     0
174
     0
 93
        1
 44
50.0
173
     0
291
     1
 45
0.0
1001
ACAD
1000
AcDbSavedByObjectVersion
1070
     0
  0
VISUALSTYLE
  5
3A
102
{ACAD_XDICTIONARY
360
4B0
102
}
102
{ACAD_REACTORS
330
2A
102
}
330
2A
100
AcDbVisualStyle
  2
ColorChange
 70
    16
 71
     2
 72
     2
 73
     3
 90
        0
 40
-0.6
 41
-30.0
 62
     5
 63
     8
 74
     1
 91
        4
 64
     7
 65
   257
 75
     1
175
     1
 42
1.0
 92
        8
 66
     8
 43
1.0
 76
     1
 77
     6
 78
     2
 67
     7
 79
     5
170
     0
171
     0
290
     0
174
     0
 93
        1
 44
0.0
173
     0
291
     1
 45
0.0
1001
ACAD
1000
AcDbSavedByObjectVersion
1070
     0
  0
VISUALSTYLE
  5
A4B
102
{ACAD_REACTORS
330
2A
102
}
330
2A
100
AcDbVisualStyle
  2
Conceptual
 70
     9
 71
     3
 72
     2
 73
     0
 90
        0
 40
-0.6
 41
-30.0
 62
     5
 63
     7
 74
     2
 91
        2
 64
     7
 65
   257
 75
     1
175
     1
 42
40.0
 92
        8
 66
     7
 43
1.0
 76
     1
 77
     6
 78
     2
 67
     7
 79
     3
170
     0
171
     0
290
     0
174
     0
 93
        1
 44
0.0
173
     0
291
     0
 45
0.0
1001
ACAD
1000
AcDbSavedByObjectVersion
1070
     0
  0
VISUALSTYLE
  5
35
102
{ACAD_XDICTIONARY
360
4A6
102
}
102
{ACAD_REACTORS
330
2A
102
}
330
2A
100
AcDbVisualStyle
  2
Dim
 70
    11
 71
     2
 72
     2
 73
     0
 90
        0
 40
-0.6
 41
-30.0
 62
     5
 63
     7
 74
     1
 91
        4
 64
     7
 65
   257
 75
     1
175
     1
 42
1.0
 92
        8
 66
     7
 43
1.0
 76
     1
 77
     6
 78
     2
 67
     7
 79
     5
170
     0
171
     0
290
     0
174
     0
 93
        1
 44
-50.0
173
     0
291
     1
 45
0.0
1001
ACAD
1000
AcDbSavedByObjectVersion
1070
     0
  0
VISUALSTYLE
  5
39
102
{ACAD_XDICTIONARY
360
4AE
102
}
102
{ACAD_REACTORS
330
2A
102
}
330
2A
100
AcDbVisualStyle
  2
Facepattern
 70
    15
 71
     2
 72
     2
 73
     0
 90
        0
 40
-0.6
 41
-30.0
 62
     5
 63
     7
 74
     1
 91
        4
 64
     7
 65
   257
 75
     1
175
     1
 42
1.0
 92
        8
 66
     7
 43
1.0
 76
     1
 77
     6
 78
     2
 67
     7
 79
     5
170
     0
171
     0
290
     0
174
     0
 93
        1
 44
0.0
173
     0
291
     1
 45
0.0
1001
ACAD
1000
AcDbSavedByObjectVersion
1070
     0
  0
VISUALSTYLE
  5
2B
102
{ACAD_XDICTIONARY
360
492
102
}
102
{ACAD_REACTORS
330
2A
102
}
330
2A
100
AcDbVisualStyle
  2
Flat
 70
     0
 71
     2
 72
     1
 73
     1
 90
        2
 40
-0.6
 41
30.0
 62
     5
 63
     7
 74
     0
 91
        4
 64
     7
 65
   257
 75
     1
175
     1
 42
1.0
 92
        8
 66
     7
 43
1.0
 76
     1
 77
     6
 78
     2
 67
     7
 79
     5
170
     0
171
     0
290
     0
174
     0
 93
       13
 44
0.0
173
     0
291
     1
 45
0.0
1001
ACAD
1000
AcDbSavedByObjectVersion
1070
     0
  0
VISUALSTYLE
  5
2C
102
{ACAD_XDICTIONARY
360
494
102
}
102
{ACAD_REACTORS
330
2A
102
}
330
2A
100
AcDbVisualStyle
  2
FlatWithEdges
 70
     1
 71
     2
 72
     1
 73
     1
 90
        2
 40
-0.6
 41
30.0
 62
     5
 63
     7
 74
     1
 91
        4
 64
     7
 65
   257
 75
     1
175
     1
 42
1.0
 92
        0
 66
   257
 43
1.0
 76
     1
 77
     6
 78
     2
 67
     7
 79
     5
170
     0
171
     0
290
     0
174
     0
 93
       13
 44
0.0
173
     0
291
     1
 45
0.0
1001
ACAD
1000
AcDbSavedByObjectVersion
1070
     0
  0
VISUALSTYLE
  5
2D
102
{ACAD_XDICTIONARY
360
496
102
}
102
{ACAD_REACTORS
330
2A
102
}
330
2A
100
AcDbVisualStyle
  2
Gouraud
 70
     2
 71
     2
 72
     2
 73
     1
 90
        2
 40
-0.6
 41
30.0
 62
     5
 63
     7
 74
     0
 91
        4
 64
     7
 65
   257
 75
     1
175
     1
 42
1.0
 92
        0
 66
     7
 43
1.0
 76
     1
 77
     6
 78
     2
 67
     7
 79
     5
170
     0
171
     0
290
     0
174
     0
 93
       13
 44
0.0
173
     0
291
     1
 45
0.0
1001
ACAD
1000
AcDbSavedByObjectVersion
1070
     0
  0
VISUALSTYLE
  5
2E
102
{ACAD_XDICTIONARY
360
498
102
}
102
{ACAD_REACTORS
330
2A
102
}
330
2A
100
AcDbVisualStyle
  2
GouraudWithEdges
 70
     3
 71
     2
 72
     2
 73
     1
 90
        2
 40
-0.6
 41
30.0
 62
     5
 63
     7
 74
     1
 91
        4
 64
     7
 65
   257
 75
     1
175
     1
 42
1.0
 92
        0
 66
   257
 43
1.0
 76
     1
 77
     6
 78
     2
 67
     7
 79
     5
170
     0
171
     0
290
     0
174
     0
 93
       13
 44
0.0
173
     0
291
     1
 45
0.0
1001
ACAD
1000
AcDbSavedByObjectVersion
1070
     0
  0
VISUALSTYLE
  5
38
102
{ACAD_XDICTIONARY
360
4AC
102
}
102
{ACAD_REACTORS
330
2A
102
}
330
2A
100
AcDbVisualStyle
  2
Linepattern
 70
    14
 71
     2
 72
     2
 73
     0
 90
        0
 40
-0.6
 41
-30.0
 62
     5
 63
     7
 74
     1
 91
        4
 64
     7
 65
   257
 75
     7
175
     7
 42
1.0
 92
        8
 66
     7
 43
1.0
 76
     1
 77
     6
 78
     2
 67
     7
 79
     5
170
     0
171
     0
290
     0
174
     0
 93
        1
 44
0.0
173
     0
291
     1
 45
0.0
1001
ACAD
1000
AcDbSavedByObjectVersion
1070
     0
  0
VISUALSTYLE
  5
A4C
102
{ACAD_XDICTIONARY
360
A4D
102
}
102
{ACAD_REACTORS
330
2A
102
}
330
2A
100
AcDbVisualStyle
  2
Realistic
 70
     8
 71
     2
 72
     2
 73
     0
 90
        0
 40
-0.6
 41
-30.0
 62
     5
 63
     7
 74
     1
 91
        0
 64
     7
 65
   257
 75
     1
175
     1
 42
1.0
 92
        8
 66
     8
 43
1.0
 76
     1
 77
     6
 78
     2
 67
     7
 79
     5
170
     0
171
     0
290
     0
174
     0
 93
       13
 44
0.0
173
     0
291
     0
 45
0.0
1001
ACAD
1000
AcDbSavedByObjectVersion
1070
     0
  0
VISUALSTYLE
  5
37
102
{ACAD_XDICTIONARY
360
4AA
102
}
102
{ACAD_REACTORS
330
2A
102
}
330
2A
100
AcDbVisualStyle
  2
Thicken
 70
    13
 71
     2
 72
     2
 73
     0
 90
        0
 40
-0.6
 41
-30.0
 62
     5
 63
     7
 74
     1
 91
        4
 64
     7
 65
   257
 75
     1
175
     1
 42
1.0
 92
       12
 66
     7
 43
1.0
 76
     1
 77
     6
 78
     2
 67
     7
 79
     5
170
     0
171
     0
290
     0
174
     0
 93
        1
 44
0.0
173
     0
291
     1
 45
0.0
1001
ACAD
1000
AcDbSavedByObjectVersion
1070
     0
  0
DICTIONARYVAR
  5
2D8A
102
{ACAD_REACTORS
330
487
102
}
330
487
100
DictionaryVariables
280
     0
  1
1:1
  0
DICTIONARYVAR
  5
2D88
102
{ACAD_REACTORS
330
487
102
}
330
487
100
DictionaryVariables
280
     0
  1
STANDARD
  0
DICTIONARYVAR
  5
5FE
102
{ACAD_REACTORS
330
487
102
}
330
487
100
DictionaryVariables
280
     0
  1
STANDARD
  0
DICTIONARYVAR
  5
48A
102
{ACAD_REACTORS
330
487
102
}
330
487
100
DictionaryVariables
280
     0
  1
2
  0
DICTIONARYVAR
  5
48B
102
{ACAD_REACTORS
330
487
102
}
330
487
100
DictionaryVariables
280
     0
  1
1
  0
DICTIONARYVAR
  5
86B
102
{ACAD_REACTORS
330
487
102
}
330
487
100
DictionaryVariables
280
     0
  1
0
  0
DICTIONARYVAR
  5
2D8B
102
{ACAD_REACTORS
330
487
102
}
330
487
100
DictionaryVariables
280
     0
  1
0
  0
DICTIONARYVAR
  5
2D89
102
{ACAD_REACTORS
330
487
102
}
330
487
100
DictionaryVariables
280
     0
  1
0
  0
DICTIONARYVAR
  5
86A
102
{ACAD_REACTORS
330
487
102
}
330
487
100
DictionaryVariables
280
     0
  1
127
  0
DICTIONARY
  5
7D4
330
1E
100
AcDbDictionary
280
     1
281
     1
  3
ADSK_XREC_LAYOUTTHUMBNAIL
360
7D5
  0
DICTIONARY
  5
3846
330
3D
100
AcDbDictionary
280
     1
281
     1
  3
ACAD_XREC_ROUNDTRIP
360
3847
  0
DICTIONARY
  5
3844
330
3C
100
AcDbDictionary
280
     1
281
     1
  3
ACAD_XREC_ROUNDTRIP
360
3845
  0
DICTIONARY
  5
3848
330
3E
100
AcDbDictionary
280
     1
281
     1
  3
ACAD_XREC_ROUNDTRIP
360
3849
  0
DICTIONARY
  5
2D85
330
4BB
100
AcDbDictionary
280
     1
281
     1
  3
ACAD_ROUNDTRIP_2008_TABLESTYLE_CELLSTYLEMAP
360
3843
  3
ACAD_XREC_ROUNDTRIP
360
384A
  0
DICTIONARY
  5
49A
330
2F
100
AcDbDictionary
280
     1
281
     1
  3
ACAD_XREC_ROUNDTRIP
360
49B
  0
DICTIONARY
  5
A49
330
A48
100
AcDbDictionary
280
     1
281
     1
  3
ACAD_XREC_ROUNDTRIP
360
A4A
  0
DICTIONARY
  5
4A0
330
32
100
AcDbDictionary
280
     1
281
     1
  3
ACAD_XREC_ROUNDTRIP
360
4A1
  0
DICTIONARY
  5
4A8
330
36
100
AcDbDictionary
280
     1
281
     1
  3
ACAD_XREC_ROUNDTRIP
360
4A9
  0
DICTIONARY
  5
4B0
330
3A
100
AcDbDictionary
280
     1
281
     1
  3
ACAD_XREC_ROUNDTRIP
360
4B1
  0
DICTIONARY
  5
4A6
330
35
100
AcDbDictionary
280
     1
281
     1
  3
ACAD_XREC_ROUNDTRIP
360
4A7
  0
DICTIONARY
  5
4AE
330
39
100
AcDbDictionary
280
     1
281
     1
  3
ACAD_XREC_ROUNDTRIP
360
4AF
  0
DICTIONARY
  5
492
330
2B
100
AcDbDictionary
280
     1
281
     1
  3
ACAD_XREC_ROUNDTRIP
360
493
  0
DICTIONARY
  5
494
330
2C
100
AcDbDictionary
280
     1
281
     1
  3
ACAD_XREC_ROUNDTRIP
360
495
  0
DICTIONARY
  5
496
330
2D
100
AcDbDictionary
280
     1
281
     1
  3
ACAD_XREC_ROUNDTRIP
360
497
  0
DICTIONARY
  5
498
330
2E
100
AcDbDictionary
280
     1
281
     1
  3
ACAD_XREC_ROUNDTRIP
360
499
  0
DICTIONARY
  5
4AC
330
38
100
AcDbDictionary
280
     1
281
     1
  3
ACAD_XREC_ROUNDTRIP
360
4AD
  0
DICTIONARY
  5
A4D
330
A4C
100
AcDbDictionary
280
     1
281
     1
  3
ACAD_XREC_ROUNDTRIP
360
A4E
  0
DICTIONARY
  5
4AA
330
37
100
AcDbDictionary
280
     1
281
     1
  3
ACAD_XREC_ROUNDTRIP
360
4AB
  0
XRECORD
  5
7D5
102
{ACAD_REACTORS
330
7D4
102
}
330
7D4
100
AcDbXrecord
280
     1
310
28000000B40000007F00000001000800000000004C59000000000000000000000001000000000000FFFFFF0000000000FFFFFF000000000000000000000000000000000000000000000000000000000000000000330000006600000099000000CC000000FF00000000330000333300006633000099330000CC330000FF3300
310
0000660000336600006666000099660000CC660000FF66000000990000339900006699000099990000CC990000FF99000000CC000033CC000066CC000099CC0000CCCC0000FFCC000000FF000033FF000066FF000099FF0000CCFF0000FFFF000000003300330033006600330099003300CC003300FF003300003333003333
310
33006633330099333300CC333300FF33330000663300336633006666330099663300CC663300FF66330000993300339933006699330099993300CC993300FF99330000CC330033CC330066CC330099CC3300CCCC3300FFCC330000FF330033FF330066FF330099FF3300CCFF3300FFFF330000006600330066006600660099
310
006600CC006600FF00660000336600333366006633660099336600CC336600FF33660000666600336666006666660099666600CC666600FF66660000996600339966006699660099996600CC996600FF99660000CC660033CC660066CC660099CC6600CCCC6600FFCC660000FF660033FF660066FF660099FF6600CCFF6600
310
FFFF660000009900330099006600990099009900CC009900FF00990000339900333399006633990099339900CC339900FF33990000669900336699006666990099669900CC669900FF66990000999900339999006699990099999900CC999900FF99990000CC990033CC990066CC990099CC9900CCCC9900FFCC990000FF99
310
0033FF990066FF990099FF9900CCFF9900FFFF99000000CC003300CC006600CC009900CC00CC00CC00FF00CC000033CC003333CC006633CC009933CC00CC33CC00FF33CC000066CC003366CC006666CC009966CC00CC66CC00FF66CC000099CC003399CC006699CC009999CC00CC99CC00FF99CC0000CCCC0033CCCC0066CC
310
CC0099CCCC00CCCCCC00FFCCCC0000FFCC0033FFCC0066FFCC0099FFCC00CCFFCC00FFFFCC000000FF003300FF006600FF009900FF00CC00FF00FF00FF000033FF003333FF006633FF009933FF00CC33FF00FF33FF000066FF003366FF006666FF009966FF00CC66FF00FF66FF000099FF003399FF006699FF009999FF00CC
310
99FF00FF99FF0000CCFF0033CCFF0066CCFF0099CCFF00CCCCFF00FFCCFF0000FFFF0033FFFF0066FFFF0099FFFF00CCFFFF00FFFFFF00000000000D0D0D001A1A1A00282828003535350043434300505050005D5D5D006B6B6B00787878008686860093939300A1A1A100AEAEAE00BBBBBB00C9C9C900D6D6D600E4E4E400
310
F1F1F100FFFFFF0000000000000000000000000000000000000000000000000000000000000000000000000000000000E2E2E2E2E2E2E2E2E2E2E2E2E2E2E2E2E2E2E2E2E2E2E2E2E2E2E2E2E2E2E2E2E2E2E2E2E2E2E2E2E2E2E2E2E2E2E2E2E2E2E2E2E2E2E2E2E2E2E2E2E2E2E2E2E2E2E2E2E2E2E2E2E2E2E2E2E2E2E2
310
E2E2E2E2E2E2E2E2E2E2E2E2E2E2E2E2E2E2E2E2E2E2E2E2E2E2E2E2E2E2E2E2E2E2E2E2E2E2E2E2E2E2E2E2E2E2E2E2E2E2E2E2E2E2E2E2E2E2E2E2E2E2E2E2E2E2E2E2E2E2E2E2E2E2E2E2E2E2E2E2E2E2E2E2E2E2E2E2E2E2E2E2E2E2E2E2E2E2E2E2E2E2F5F5F5F5F5F5F5F5F5F5F5F5F5F5F5F5F5F5F5F5F5F5F5F5F5
310
F5F5F5F5F5F5F5F5F5F5F5F5F5F5F5F5F5F5F5F5F5F5F5F5F5F5F5F5F5F5F5F5F5F5F5F5F5F5F5F5F5F5F5F5F5F5F5F5F5F5F5F5F5F5F5F5F5F5F5F5F5F5F5F5F5F5F5F5F5F5F5F5F5F5F5F5F5F5F5F5F5F5F5F5F5F5F5F5F5F5F5F5F5F5F5F5F5F5F5F5F5F5F5F5F5F5F5F5F5F5F5F5F5F5F5F5F5F5F5F5F5F5F5F5F5F5F5
310
F5F5F5F5F5F5F5F5F5F5F5F5F5F5F5F5F5F5F5F5F5F5F5F5F5F5E2E2F5E2E2E2E2E2E2E2E2E2E2E2E2E2E2E2E2E2E2E2E2E2E2E2E2E2E2E2E2E2E2E2E2E2E2E2E2E2E2E2E2E2E2E2E2E2E2E2E2E2E2E2E2E2E2E2E2E2E2E2E2E2E2E2E2E2E2E2E2E2E2E2E2E2E2E2E2E2E2E2E2E2E2E2E2E2E2E2E2E2E2E2E2E2E2E2E2E2E2
310
E2E2E2E2E2E2E2E2E2E2E2E2E2E2E2E2E2E2E2E2E2E2E2E2E2E2E2E2E2E2E2E2E2E2E2E2E2E2E2E2E2E2E2E2E2E2E2E2E2E2E2E2E2E2E2E2E2E2E2E2E2E2E2E2E2E2E2E2E2E2E2E2E2E2E2E2E2E2F5E2E2F5E2F5F5F5F5F5F5F5F5F5F5F5F5F5F5F5F5F5F5F5F5F5F5F5F5F5F5F5F5F5F5F5F5F5F5F5F5F5F5F5F5F5F5F5F5
310
F5F5F5F5F5F5F5F5F5F5F5F5F5F5F5F5F5F5F5F5F5F5F5F5F5F5F5F5F5F5F5F5F5F5F5F5F5F5F5F5F5F5F5F5F5F5F5F5F5F5F5F5F5F5F5F5F5F5F5F5F5F5F5F5F5F5F5F5F5F5F5F5F5F5F5F5F5F5F5F5F5F5F5F5F5F5F5F5F5F5F5F5F5F5F5F5F5F5F5F5F5F5F5F5F5F5F5F5F5F5F5F5F5F5F5F5F5F5F5F5F5F5F5F5F5F5F5
310
F5F5E2E2F5E2E2F5E2F5F5F5F5F5F5F5F5F5F5F5F5F5F5F5F5F5F5F5F5F5F5F5F5F5F5F5F5F5F5F5F5F5F5F5F5F5F5F5F5F5F5F5F5F5F5F5F5F5F5F5F5F5F5F5F5F5F5F5F5F5F5F5F5F5F5F5F5F5F5F5F5F5F5F5F5F5F5F5F5F5F5F5F5F5F5F5F5F5F5F5F5F5F5F5F5F5F5F5F5F5F5F5F5F5F5F5F5F5F5F5F5F5F5F5F5F5F5
310
F5F5F5F5F5F5F5F5F5F5F5F5F5F5F5F5F5F5F5F5F5F5F5F5F5F5F5F5F5F5F5F5F5F5F5F5F5F5F5F5F5F5F5F5F5F5F5F5F5F5F5F5F5F5F5E2E2F5E2E2F5E2F5F5F5F5F5F5F5F5F5F5F5F5F5F5F5F5F5F5F5F5F5F5F5F5F5F5F5F5F5F5F5F5F5F5F5F5F5F5F5F5F5F5F5F5F5F5F5F5F5F5F5F5F5F5F5F5F5F5F5F5F5F5F5F5F5
310
F5F5F5F5F5F5F5F5F5F5F5F5F5F5F5F5F5F5F5F5F5F5F5F5F5F5F5F5F5F5F5F5F5F5F5F5F5F5F5F5F5F5F5F5F5F5F5F5F5F5F5F5F5F5F5F5F5F5F5F5F5F5F5F5F5F5F5F5F5F5F5F5F5F5F5F5F5F5F5F5F5F5F5F5F5F5F5F5F5F5F5F5F5F5F5F5F5F5F5F5F5F5F5F5F5F5F5F5E2E2F5E2E2F5E2F5F5F5F5F5F5F5F5F5F5F5F5
310
F5F5F5F5F5F5F5F5F5F5F5F5F5F5F5F5F5F5F5F5F5F5F5F5F5F5F5F5F5F5F5F5F5F5F5F5F5F5F5F5F5F5F5F5F5F5F5F5F5F5F5F5F5F5F5F5F5F5F5F5F5F5F5F5F5F5F5F5F5F5F5F5F5F5F5F5F5F5F5F5F5F5F5F5F5F5F5F5F5F5F5F5F5F5F5F5F5F5F5F5F5F5F5F5F5F5F5F5F5F5F5F5F5F5F5F5F5F5F5F5F5F5F5F5F5F5F5
310
F5F5F5F5F5F5F5F5F5F5F5F5F5F5F5F5F5F5F5F5F5F5F5F5F5F5F5F5F5F5F5F5F5F5E2E2F5E2E2F5E2F5F5F5F5F5F5F5F5F5F5F5F5F5F5F5F5F5F5F5F5F5F5F5F5F5F5F5F5F5F5F5F5F5F5F5F5F5F5F5F5F5F5F5F5F5F5F5F5F5F5F5F5F5F5F5F5F5F5F5F5F5F5F5F5F5F5F5F5F5F5F5F5F5F5F5F5F5F5F5F5F5F5F5F5F5F5
310
F5F5F5F5F5F5F5F5F5F5F5F5F5F5F5F5F5F5F5F5F5F5F5F5F5F5F5F5F5F5F5F5F5F5F5F5F5F5F5F5F5F5F5F5F5F5F5F5F5F5F5F5F5F5F5F5F5F5F5F5F5F5F5F5F5F5F5F5F5F5F5F5F5F5F5F5F5F5F5F5F5F5F5F5F5F5F5E2E2F5E2E2F5E2F5F5F5F5F5F5F5F5F5F5F5F5F5F5F5F5F5F5F5F5F5F5F5F5F5F5F5F5F5F5F5F5F5
310
F5F5F5F5F5F5F5F5F5F5F5F5F5F5F5F5F5F5F5F5F5F5F5F5F5F5F5F5F5F5F5F5F5F5F5F5F5F5F5F5F5F5F5F5F5F5F5F5F5F5F5F5F5F5F5F5F5F5F5F5F5F5F5F5F5F5F5F5F5F5F5F5F5F5F5F5F5F5F5F5F5F5F5F5F5F5F5F5F5F5F5F5F5F5F5F5F5F5F5F5F5F5F5F5F5F5F5F5F5F5F5F5F5F5F5F5F5F5F5F5F5F5F5F5F5F5F5
310
F5F5F5F5F5F5F5F5F5F5F5F5F5E2E2F5E2E2F5E2F5F5F5F5F5F5F5F5F5F5F5F5F5F5F5F5F5F5F5F5F5F5F5F5F5F5F5F5F5F5F5F5F5F5F5F5F5F5F5F5F5F5F5F5F5F5F5F5F5F5F5F5F5F5F5F5F5F5F5F5F5F5F5F5F5F5F5F5F5F5F5F5F5F5F5F5F5F5F5F5F5F5F5F5F5F5F5F5F5F5F5F5F5F5F5F5F5F5F5F5F5F5F5F5F5F5F5
310
F5F5F5F5F5F5F5F5F5F5F5F5F5F5F5F5F5F5F5F5F5F5F5F5F5F5F5F5F5F5F5F5F5F5F5F5F5F5F5F5F5F5F5F5F5F5F5F5F5F5F5F5F5F5F5F5F5F5F5F5F5F5F5F5F5F5E2E2F5E2E2F5E2F5F5F5F5F5F5F5F5F5F5F5F5F5F5F5F5F5F5F5F5F5F5F5F5F5F5F5F5F5F5F5F5F5F5F5F5F5F5F5F5F5F5F5F5F5F5F5F5F5F5F5F5F5F5
310
F5F5F5F5F5F5F5F5F5F5F5F5F5F5F5F5F5F5F5F5F5F5F5F5F5F5F5F5F5F5F5F5F5F5F5F5F5F5F5F5F5F5F5F5F5F5F5F5F5F5F5F5F5F5F5F5F5F5F5F5F5F5F5F5F5F5F5F5F5F5F5F5F5F5F5F5F5F5F5F5F5F5F5F5F5F5F5F5F5F5F5F5F5F5F5F5F5F5F5F5F5F5F5F5F5F5F5F5F5F5F5F5F5F5F5F5F5F5F5E2F5F5E2E2F5E2F5
310
F5F5F5F5F5F5F5F5F5F5F5F5F5F5F5F5F5F5F5F5F5F5F5F5F5F5F5F5F5F5F5F5F5F5F5F5F5F5F5F5F5F5F5F5F5F5F5F5F5F5F5F5F5F5F5F5F5F5F5F5F5F5F5F5F5F5F5F5F5F5F5F5F5F5F5F5F5F5F5F5F5F5F5F5F5F5F5F5F5F5F5F5F5F5F5F5F5F5F5F5F5F5F5F5F5F5F5F5F5F5F5F5F5F5F5F5F5F5F5F5F5F5F5F5F5F5F5
310
F5F5F5F5F5F5F5F5F5F5F5F5F5F5F5F5F5F5F5F5F5F5F5F5F5F5F5F5F5F5F5F5F5F5F5F5F5F5F5F5F5F5F5F5F5E2F5F5E2E2F5E2F5F5F5F5F5F5F5F5F5F5F5F5F5F5F5F5F5F5F5F5F5F5F5F5F5F5F5F5F5F5F5F5F5F5F5F5F5F5F5F5F5F5F5F5F5F5F5F5F5F5F5F5F5F5F5F5F5F5F5F5F5F5F5F5F5F5F5F5F5F5F5F5F5F5F5
310
F5F5F5F5F5F5F5F5F5F5F5F5F5F5F5F5F5F5F5F5F5F5F5F5F5F5F5F5F5F5F5F5F5F5F5F5F5F5F5F5F5F5F5F5F5F5F5F5F5F5F5F5F5F5F5F5F5F5F5F5F5F5F5F5F5F5F5F5F5F5F5F5F5F5F5F5F5F5F5F5F5F5F5F5F5F5F5F5F5F5F5F5F5F5F5F5F5F5E2F5F5E2E2F5E2F5F5F5F5F5F5F5F5F5F5F5F5F5F5F5F5F5F5F5F5F5F5
310
F5F5F5F5F5F5F5F5F5F5F5F5F5F5F5F5F5F5F5F5F5F5F5F5F5F5F5F5F5F5F5F5F5F5F5F5F5F5F5F5F5F5F5F5F5F5F5F5F5F5F5F5F5F5F5F5F5F5F5F5F5F5F5F5F5F5F5F5F5F5F5F5F5F5F5F5F5F5F5F5F5F5F5F5F5F5F5F5F5F5F5F5F5F5F5F5F5F5F5F5F5F5F5F5F5F5F5F5F5F5F5F5F5F5F5F5F5F5F5F5F5F5F5F5F5F5F5
310
F5F5F5F5F5F5F5F5F5F5F5F5F5F5F5F5F5F5F5F5F5F5F5F5E2F5F5E2E2F5E2F5F5F5F5F5F5F5F5F5F5F5F5F5F5F5F5F5F5F5F5F5F5F5F5F5F5F5F5F5F5F5F5F5F5F5F5F5F5F5F5F5F5F5F5F5F5F5F5F5F5F5F5F5F5F5F5F5F5F5F5F5F5F5F5F5F5F5F5F5F5F5F5F5F5F5F5F5F5F5F5F5F5F5F5F5F5F5F5F5F5F5F5F5F5F5F5
310
F5F5F5F5F5F5F5F5F5F5F5F5F5F5F5F5F5F5F5F5F5F5F5F5F5F5F5F5F5F5F5F5F5F5F5F5F5F5F5F5F5F5F5F5F5F5F5F5F5F5F5F5F5F5F5F5F5F5F5F5F5F5F5F5F5F5F5F5F5F5F5F5F5F5F5F5F5E2F5F5E2E2F5E2F5F5F5F5F5F5F5F5F5F5F5F5F5F5F5F5F5F5F5F5F5F5F5F5F5F5F5F5F5F5F5F5F5F5F5F5F5F5F5F5F5F5F5
310
F5F5F5F5F5F5F5F5F5F5F5F5F5F5F5F5F5F5F5F5F5F5F5F5F5F5F5F5F5F5F5F5F5F5F5F5F5F5F5F5F5F5F5F5F5F5F5F5F5F5F5F5F5F5F5F5F5F5F5F5F5F5F5F5F5F5F5F5F5F5F5F5F5F5F5F5F5F5F5F5F5F5F5F5F5F5F5F5F5F5F5F5F5F5F5F5F5F5F5F5F5F5F5F5F5F5F5F5F5F5F5F5F5F5F5F5F5F5F5F5F5F5F5F5F5F5F5
310
F5F5F5E2F5F5E2E2F5E2F5F5F5F5F5F5F5F5F5F5F5F5F5F5F5F5F5F5F5F5F5F5F5F5F5F5F5F5F5F5F5F5F5F5F5F5F5F5F5F5F5F5F5F5F5F5F5F5F5F5F5F5F5F5F5F5F5F5F5F5F5F5F5F5F5F5F5F5F5F5F5F5F5F5F5F5F5F5F5F5F5F5F5F5F5F5F5F5F5F5F5F5F5F5F5F5F5F5F5F5F5F5F5F5F5F5F5F5F5F5F5F5F5F5F5F5F5
310
F5F5F5F5F5F5F5F5F5F5F5F5F5F5F5F5F5F5F5F5F5F5F5F5F5F5F5F5F5F5F5F5F5F5F5F5F5F5F5F5F5F5F5F5F5F5F5F5F5F5F5F5F5F5F5F5E2F5F5E2E2F5E2F5F5F5F5F5F5F5F5F5F5F5F5F5F5F5F5F5F5F5F5F5F5F5F5F5F5F5F5F5F5F5F5F5F5F5F5F5F5F5F5F5F5F5F5F5F5F5E2E2E2E2E2E2E2E2E2E2E2E2E2E2E2E2E2
310
E2E2E2E2E2E2E2E2E2E2E2E2E2E2E2E2E2E2E2E2E2E2E2E2E2E2E2E2F5F5F5F5F5F5F5F5F5F5F5F5F5F5F5F5F5F5F5F5F5F5F5F5F5F5F5F5F5F5F5F5F5F5F5F5F5F5F5F5F5F5F5F5F5F5F5F5F5F5F5F5F5F5F5F5F5F5F5F5F5F5F5F5F5F5F5F5F5F5F5F5F5F5F5F5F5F5F5F5F5E2F5F5E2E2F5E2F5F5F5F5F5F5F5F5F5F5F5
310
F5F5F5F5F5F5F5F5F5F5F5F5F5F5F5F5F5F5F5F5F5F5F5F5F5F5F5F5F5F5F5F5F5F5F5F5E2E2E2E2E2E2E2E2E2E2E2E2E2E2E2E2E2E2E2E2E2E2E2E2E2E2E2E2E2E2E2E2E2E2E2E2E2E2E2E2E2E2E2E2E2F5F5F5F5F5F5F5F5F5F5F5F5F5F5F5F5F5F5F5F5F5F5F5F5F5F5F5F5F5F5F5F5F5F5F5F5F5F5F5F5F5F5F5F5F5F5
310
F5F5F5F5F5F5F5F5F5F5F5F5F5F5F5F5F5F5F5F5F5F5F5F5F5F5F5F5F5F5F5F5F5F5F5E2F5F5E2E2F5E2F5F5F5F5F5F5F5F5F5F5F5F5F5F5F5F5F5F5F5F5F5F5F5F5F5F5F5F5F5F5F5F5F5F5F5F5F5F5F5F5F5F5F5F5F5F5F5E2E2E2E2E2E2E2E2E2E2E2E2E2E2E2E2E2E2E2E2E2E2E2E2E2E2E2E2E2E2E2E2E2E2E2E2E2E2
310
E2E2E2E2E2E2E2F5F5F5F5F5F5F5F5F5F5F5F5F5F5F5F5F5F5F5F5F5F5F5F5F5F5F5F5F5F5F5F5F5F5F5F5F5F5F5F5F5F5F5F5F5F5F5F5F5F5F5F5F5F5F5F5F5F5F5F5F5F5F5F5F5F5F5F5F5F5F5F5F5F5F5F5F5F5F5F5F5E2E2F5E2E2F5E2F5F5F5F5F5F5F5F5F5F5F5F5F5F5F5F5F5F5F5F5F5F5F5F5F5F5F5F5F5F5F5F5
310
F5F5F5F5F5F5F5F5F5F5F5F5F5F5F5E2E2E2E2E2E2E2E2E2E2E2E2E2E2E2E2E2E2E2E2E2E2E2E2E2E2E2E2E2E2E2E2E2E2E2E2E2E2E2E2E2E2E2E2E2F5F5F5F5F5F5F5F5F5F5F5F5F5F5F5F5F5F5F5F5F5F5F5F5F5F5F5F5F5F5F5F5F5F5F5F5F5F5F5F5F5F5F5F5F5F5F5F5F5F5F5F5F5F5F5F5F5F5F5F5F5F5F5F5F5F5F5
310
F5F5F5F5F5F5F5F5F5F5F5F5F5F5E2E2F5E2E2F5E2F5F5F5F5F5F5F5F5F5F5F5F5F5F5F5F5F5F5F5F5F5F5F5F5F5F5F5F5F5F5F5F5F5F5F5F5F5F5F5F5F5F5F5F5F5F5F5F5F5F5F5F5F5F5F5F5F5F5F5F5F5F5F5F5F5F5F5F5F5F5F5F5F5F5F5F5F5F5F5F5F5F5F5F5F5F5F5F5F5F5F5F5F5F5F5F5F5F5F5F5F5F5F5F5F5F5
310
F5F5F5F5F5F5F5F5F5F5F5F5F5F5F5F5F5F5F5F5F5F5F5F5F5F5F5F5F5F5F5F5F5F5F5F5F5F5F5F5F5F5F5F5F5F5F5F5F5F5F5F5F5F5F5F5F5F5F5F5F5F5F5F5F5F5F5E2E2F5E2E2F5E2F5F5F5F5F5F5F5F5F5F5F5F5F5F5F5F5F5F5F5F5F5F5F5F5F5F5F5F5F5F5F5F5F5F5F5F5F5F5F5F5F5F5F5F5F5F5F5F5F5F5F5F5F5
310
F5F5F5F5F5F5F5F5F5F5F5F5F5F5F5F5F5F5F5F5F5F5F5F5F5F5F5F5F5F5F5F5F5F5F5F5F5F5F5F5F5F5F5F5F5F5F5F5F5F5F5F5F5F5F5F5F5F5F5F5F5F5F5F5F5F5F5F5F5F5F5F5F5F5F5F5F5F5F5F5F5F5F5F5F5F5F5F5F5F5F5F5F5F5F5F5F5F5F5F5F5F5F5F5F5F5F5F5F5F5F5F5F5F5F5F5F5F5F5F5E2E2F5E2E2F5E2
310
F5F5F5F5F5F5F5F5F5F5F5F5F5F5F5F5F5F5F5F5F5F5F5F5F5F5F5F5F5F5F5F5F5F5F5F5F5F5F5F5F5F5F5F5F5F5F5F5F5F5F5F5F5F5F5F5F5F5F5F5F5F5F5F5F5F5F5F5F5F5F5F5F5F5F5F5F5F5F5F5F5F5F5F5F5F5F5F5F5F5F5F5F5F5F5F5F5F5F5F5F5F5F5F5F5F5F5F5F5F5F5F5F5F5F5F5F5F5F5F5F5F5F5F5F5F5F5
310
F5F5F5F5F5F5F5F5F5F5F5F5F5F5F5F5F5F5F5F5F5F5F5F5F5F5F5F5F5F5F5F5F5F5F5F5F5F5F5F5F5F5F5F5F5F5E2E2F5E2E2F5E2F5F5F5F5F5F5F5F5F5F5F5F5F5F5F5F5F5F5F5F5F5F5F5F5F5F5F5F5F5F5F5F5F5F5F5F5F5F5F5F5F5F5E2BEF5F5F5F5F5F5F5F5F5F5F5F5F5F5F5F5F5F5F5F5F5F5F5F5F5F5F5F5F5F5
310
F5F5F5F5F5F5F5F5F5F5F5F5F5F5F5F5F5F5F5F5F5F5F5F5F5F5F5F5F5F5F5F5F5F5F5F5F5F5F5F5F5F5F5F5F5F5F5F5F5F5F5F5F5F5F5F5F5F5F5F5F5F5F5F5F5F5F5F5F5F5F5F5F5F5F5F5F5F5F5F5F5F5F5F5F5F5F5F5F5F5F5F5F5F5F5F5F5F5F5E2E2F5E2E2F5E2F5F5F5F5F5F5F5F5F5F5F5F5F5F5F5F5F5F5F5F5F5
310
F5F5F5F5F5F5F5F5F5F5F5F5F5F5F5F5F5F5F5F5E2E2E2E2F5F5E2E2E2E2F5E2E2E2E2E2E2E2E2E2E2E2E2F5E2E2E2E2E2E2E2E2F5E2E2E2E2E2E2E2E2F5E2E2E2E2E2E2E2E2F5E2E2E2E2E2E2E2E2F5E2E2E2E2E2E2E2E2F5E2E2E2E2E2E2E2E2F5E2E2E2E2E2E2E2E2F5E2E2E2E2F5F5F5F5F5F5F5F5F5F5F5F5F5F5F5F5
310
F5F5F5F5F5F5F5F5F5F5F5F5F5F5F5F5F5F5F5F5F5F5F5F5F5E2E2F5E2E2F5E2F5F5F5F5F5F5F5F5F5F5F5F5F5F5F5F5F5F5F5F5F5F5F5F5F5F5F5F5F5F5F5F5F5F5F5F5F5F5F5F5F5BEE2F5F5F5F5E2F5F5F5F5F5F5F5F5F5F5F5F5F5F5F5F5F5F5F5F5F5F5F5F5F5F5F5F5F5F5F5F5F5F5F5F5F5F5F5F5F5F5F5F5F5F5F5
310
F5F5F5F5F5F5F5F5F5F5F5F5F5F5F5F5F5F5F5F5F5F5F5F5F5F5F5F5F5F5F5F5F5F5F5F5E2F5F5F5F5F5F5F5F5F5F5F5F5F5F5F5F5F5F5F5F5F5F5F5F5F5F5F5F5F5F5F5F5F5F5F5F5F5F5F5F5F5E2E2F5E2E2F5E2F5F5F5F5F5F5F5F5F5F5F5F5F5F5F5F5F5F5F5F5F5F5F5F5F5F5F5F5F5F5F5F5F5F5F5F5F5F5F5F5F5F5
310
E2F5F5F5F5E2F5F5F5F5F5F5F5F5F5F5F5F5F5F5F5F5F5F5F5F5F5F5F5F5F5F5F5F5F5F5F5F5F5F5F5F5F5F5F5F5F5F5F5F5F5F5F5F5F5F5F5F5F5F5F5F5F5F5F5F5F5F5F5F5F5F5F5F5F5F5F5F5F5F5F5F5F5F5F5F5F5F5F5E2F5F5F5F5F5F5F5F5F5F5F5F5F5F5F5F5F5F5F5F5F5F5F5F5F5F5F5F5F5F5F5F5F5F5F5F5F5
310
F5F5F5F5E2E2F5E2E2F5E2F5F5F5F5F5F5F5F5F5F5F5F5F5F5F5F5F5F5F5F5F5F5F5F5F5F5F5F5F5F5F5F5F5F5F5F5F5F5F5F5F5F5E2F5F5F5F5E2F5F5F5F5F5F5F5F5F5F5F5F5F5F5F5F5F5F5F5F5F5F5F5F5F5F5F5F5F5F5F5F5F5F5F5F5F5F5F5F5F5F5F5F5F5F5F5F5F5F5F5F5F5F5F5F5F5F5F5F5F5F5F5F5F5F5F5F5
310
F5F5F5F5F5F5F5F5F5F5F5F5F5F5F5E2F5F5F5F5F5F5F5F5F5F5F5F5F5F5F5F5F5F5F5F5F5F5F5F5F5F5F5F5F5F5F5F5F5F5F5F5F5F5F5F5F5E2E2F5E2E2F5E2F5F5F5F5F5F5F5F5F5F5F5F5F5F5F5F5F5F5F5F5F5F5F5F5F5F5F5F5F5F5F5F5F5F5F5F5F5F5F5F5F5F5E2F5F5F5F5F5F5F5F5F5F5F5F5F5F5F5F5F5F5F5F5
310
F5F5F5F5F5F5F5F5F5F5F5F5F5F5F5F5F5F5F5F5F5F5F5F5F5F5F5F5F5F5F5F5F5F5F5F5F5F5F5F5F5F5F5F5F5F5F5F5F5F5F5F5F5F5F5F5F5F5F5F5F5F5F5F5F5F5F5F5F5F5F5F5F5F5F5F5F5F5F5F5F5F5F5F5F5F5F5F5F5F5F5F5F5F5F5F5F5F5F5F5F5F5F5F5F5F5F5F5F5F5E2E2F5E2E2F5E2F5F5F5F5F5F5F5F5F5F5
310
F5F5F5F5F5F5F5F5F5F5F5F5F5F5F5F5F5F5F5F5F5F5F5F5F5F5F5F5F5F5F5F5E2F5F5F5F5E2F5F5F5F5F5F5F5F5F5F5F5F5F5F5F5F5F5F5F5F5F5F5F5F5F5F5F5F5F5F5F5F5F5F5F5F5F5F5F5F5F5F5F5F5F5F5F5F5F5F5F5F5F5F5F5F5F5F5F5F5F5F5F5F5F5F5F5F5F5F5F5F5F5F5F5F5F5F5F5F5F5F5F5E2F5F5F5F5F5
310
F5F5F5F5F5F5F5F5F5F5F5F5F5F5F5F5F5F5F5F5F5F5F5F5F5F5F5F5F5F5F5F5F5F5F5F5E2E2F5E2E2F5E2F5F5F5F5F5F5F5F5F5F5F5F5F5F5F5F5F5F5F5F5F5F5F5F5F5F5F5F5F5F5F5F5F5F5F5F5F5F5F5F5F5F5E2F5F5F5F5E2F5F5F5F5F5F5F5F5F5F5F5F5F5F5F5F5F5F5F5F5F5F5F5F5F5F5F5F5F5F5F5F5F5F5F5F5
310
F5F5F5F5F5F5F5F5F5F5F5F5F5F5F5F5F5F5F5F5F5F5F5F5F5F5F5F5F5F5F5F5F5F5F5F5F5F5F5F5F5F5F5F5F5F5F5E2F5F5F5F5F5F5F5F5F5F5F5F5F5F5F5F5F5F5F5F5F5F5F5F5F5F5F5F5F5F5F5F5F5F5F5F5F5F5F5F5F5E2E2F5E2E2F5E2F5F5F5F5F5F5F5F5F5F5F5F5F5F5F5F5F5F5F5F5F5F5F5F5F5F5F5F5F5F5F5
310
F5F5F5F5F5F5F5F5F5F5F5E2F5F5F5F5E2F5F5F5F5F5F5F5F5F5F5F5F5F5F5F5F5F5F5F5F5F5F5F5F5F5F5F5F5F5F5F5F5F5F5F5F5F5F5F5F5F5F5F5F5F5F5F5F5F5F5F5F5F5F5F5F5F5F5F5F5F5F5F5F5F5F5F5F5F5F5F5F5F5F5F5F5F5F5F5F5F5F5F5E2F5F5F5F5F5F5F5F5F5F5F5F5F5F5F5F5F5F5F5F5F5F5F5F5F5F5
310
F5F5F5F5F5F5F5F5F5F5F5F5F5F5F5E2E2F5E2E2F5E2F5F5F5F5F5F5F5F5F5F5F5F5F5F5F5F5F5F5F5F5F5F5F5F5F5F5F5F5F5F5F5F5F5F5F5F5F5F5F5F5F5F5E2F5F5F5F5E2F5F5F5F5F5F5F5F5F5F5F5F5F5F5F5F5F5F5F5F5F5F5F5F5F5F5F5F5F5F5F5F5F5F5F5F5F5F5F5F5F5F5F5F5F5F5F5F5F5F5F5F5F5F5F5F5F5
310
F5F5F5F5F5F5F5F5F5F5F5F5F5F5F5F5F5F5F5F5F5F5F5F5F5F5E2F5F5F5F5F5F5F5F5F5F5F5F5F5F5F5F5F5F5F5F5F5F5F5F5F5F5F5F5F5F5F5F5F5F5F5F5F5F5F5F5F5E2E2F5E2E2F5E2F5F5F5F5F5F5F5F5F5F5F5F5F5F5F5F5F5F5F5F5F5F5F5F5F5F5F5F5F5F5F5F5F5F5F5F5F5F5F5F5F5F5E2F5F5F5F5E2F5F5F5F5
310
F5F5F5F5F5F5F5F5F5F5F5F5F5F5F5F5F5F5F5F5F5F5F5F5F5F5F5F5F5F5F5F5F5F5F5F5F5F5F5F5F5F5F5F5F5F5F5F5F5F5F5F5F5F5F5F5F5F5F5F5F5F5F5F5F5F5F5F5F5F5F5F5F5F5F5F5F5F5F5E2F5F5F5F5F5F5F5F5F5F5F5F5F5F5F5F5F5F5F5F5F5F5F5F5F5F5F5F5F5F5F5F5F5F5F5F5F5F5F5F5F5E2E2F5E2E2F5
310
E2F5F5F5F5F5F5F5F5F5F5F5F5F5F5F5F5F5F5F5F5F5F5F5F5F5F5F5F5F5F5F5F5F5F5F5F5F5F5F5F5F5F5E2F5F5F5F5E2F5F5F5F5F5F5F5F5F5F5F5F5F5F5F5F5F5F5F5F5F5F5F5F5F5F5F5F5F5F5F5F5F5F5F5F5F5F5F5F5F5F5F5F5F5F5F5F5F5F5F5F5F5F5F5F5F5F5F5F5F5F5F5F5F5F5F5F5F5F5F5F5F5F5F5F5F5F5
310
F5F5F5F5F5E2F5F5F5F5F5F5F5F5F5F5F5F5F5F5F5F5F5F5F5F5F5F5F5F5F5F5F5F5F5F5F5F5F5F5F5F5F5F5F5F5F5E2F5F5E2E2F5E2F5F5F5F5F5F5F5F5F5F5F5F5F5F5F5F5F5F5F5F5F5F5F5F5F5F5F5F5F5F5F5F5F5F5F5F5F5F5F5F5F5F5E2F5F5F5F5E2F5F5F5F5F5F5F5F5F5F5F5F5F5F5F5F5F5F5F5F5F5F5F5F5F5
310
F5F5F5F5F5F5F5F5F5F5F5F5F5F5F5F5F5F5F5F5F5F5F5F5F5F5F5F5F5F5F5F5F5F5F5F5F5F5F5F5F5F5F5F5F5F5F5F5F5F5F5F5F5F5F5F5F5F5E2F5F5F5F5F5F5F5F5F5F5F5F5F5F5F5F5F5F5F5F5F5F5F5F5F5F5F5F5F5F5F5F5F5F5F5F5F5F5F5F5F5E2F5F5E2E2F5E2F5F5F5F5F5F5F5F5F5F5F5F5F5F5F5F5F5F5F5F5
310
F5F5F5F5F5F5F5F5F5F5F5F5F5F5F5F5F5F5F5F5F5F5E2F5F5F5F5E2F5F5F5F5F5F5F5F5F5F5F5F5F5F5F5F5F5F5F5F5F5F5F5F5F5F5F5F5F5F5F5F5F5F5F5F5F5F5F5F5F5F5F5F5F5F5F5F5F5F5F5F5F5F5F5F5F5F5F5F5F5F5F5F5F5F5F5F5F5F5F5F5F5F5F5F5F5F5F5F5F5F5F5E2F5F5F5F5F5F5F5F5F5F5F5F5F5F5F5
310
F5F5F5F5F5F5F5F5F5F5F5F5F5F5F5F5F5F5F5F5F5F5F5F5F5F5E2F5F5E2E2F5E2F5F5F5F5F5F5F5F5F5F5F5F5F5F5F5F5F5F5F5F5F5F5F5F5F5F5F5F5F5F5F5F5F5F5F5F5F5F5F5F5F5F5E2F5F5F5F5F5F5F5F5F5F5F5F5F5F5F5F5F5F5F5F5F5F5F5F5F5F5F5F5F5F5F5F5F5F5F5F5F5F5F5F5F5F5F5F5F5F5F5F5F5F5F5
310
F5F5F5F5F5F5F5F5F5F5F5F5F5F5F5F5F5F5F5F5F5F5F5F5F5F5F5F5F5F5F5F5F5F5F5F5F5F5F5F5F5F5F5F5F5F5F5F5F5F5F5F5F5F5F5F5F5F5F5F5F5F5F5F5F5F5F5F5F5F5F5F5F5F5F5F5F5F5F5E2F5F5E2E2F5E2F5F5F5F5F5F5F5F5F5F5F5F5F5F5F5F5F5F5F5F5F5F5F5F5F5F5F5F5F5F5F5F5F5F5F5F5F5F5F5F5F5
310
F5E2F5F5F5F5E2F5F5F5F5F5F5F5F5F5F5F5F5F5F5F5F5F5F5F5F5F5F5F5F5F5F5F5F5F5F5F5F5F5F5F5F5F5F5F5F5F5F5F5F5F5F5F5F5F5F5F5F5F5F5F5F5F5F5F5F5F5F5F5F5F5F5F5F5F5F5F5F5F5F5F5F5F5F5F5F5F5F5F5E2F5F5F5F5F5F5F5F5F5F5F5F5F5F5F5F5F5F5F5F5F5F5F5F5F5F5F5F5F5F5F5F5F5F5F5F5
310
F5F5F5F5F5E2F5F5E2E2F5E2F5F5F5F5F5F5F5F5F5F5F5F5F5F5F5F5F5F5F5F5F5F5F5F5F5F5F5F5F5F5F5F5F5F5F5F5F5F5F5F5F5F5E2F5F5F5F5E2F5F5F5F5F5F5F5F5F5F5F5F5F5F5F5F5F5F5F5F5F5F5F5F5F5F5F5F5F5F5F5F5F5F5F5F5F5F5F5F5F5F5F5F5F5F5F5F5F5F5F5F5F5F5F5F5F5F5F5F5F5F5F5F5F5F5F5
310
F5F5F5F5F5F5F5F5F5F5F5F5F5F5F5F5E2F5F5F5F5F5F5F5F5F5F5F5F5F5F5F5F5F5F5F5F5F5F5F5F5F5F5F5F5F5F5F5F5F5F5F5F5F5F5F5F5F5E2F5F5E2E2F5E2F5F5F5F5F5F5F5F5F5F5F5F5F5F5F5F5F5F5F5F5F5F5F5F5F5F5F5F5F5F5F5F5F5F5F5F5F5F5F5F5F5F5E2F5F5F5F5E2F5F5F5F5F5F5F5F5F5F5F5F5F5F5
310
F5F5F5F5F5F5F5F5F5F5F5F5F5F5F5F5F5F5F5F5F5F5F5F5F5F5F5F5F5F5F5F5F5F5F5F5F5F5F5F5F5F5F5F5F5F5F5F5F5F5F5F5F5F5F5F5F5F5F5F5F5F5F5F5F5F5F5F5F5E2F5F5F5F5F5F5F5F5F5F5F5F5F5F5F5F5F5F5F5F5F5F5F5F5F5F5F5F5F5F5F5F5F5F5F5F5F5F5F5F5F5E2F5F5E2E2F5E2F5F5F5F5F5F5F5F5F5
310
F5F5F5F5F5F5F5F5F5F5F5F5F5F5F5F5F5F5F5F5F5F5F5F5F5F5F5F5F5F5F5F5F5E2F5F5F5F5E2F5F5F5F5F5F5F5F5F5F5F5F5F5F5F5F5F5F5F5F5F5F5F5F5F5F5F5F5F5F5F5F5F5F5F5F5F5F5F5F5F5F5F5F5F5F5F5F5F5F5F5F5F5F5F5F5F5F5F5F5F5F5F5F5F5F5F5F5F5F5F5F5F5F5F5F5F5F5F5F5F5F5F5E2F5F5F5F5
310
F5F5F5F5F5F5F5F5F5F5F5F5F5F5F5F5F5F5F5F5F5F5F5F5F5F5F5F5F5F5F5F5F5F5F5F5F5E2F5F5E2E2F5E2F5F5F5F5F5F5F5F5F5F5F5F5F5F5F5F5F5F5F5F5F5F5F5F5F5F5F5F5F5F5F5F5F5F5F5F5F5F5F5F5F5F5E2F5F5F5F5E2F5F5F5F5F5F5F5F5F5F5F5F5F5F5F5F5F5F5F5F5F5F5F5F5F5F5F5F5F5F5F5F5F5F5F5
310
F5F5F5F5F5F5F5F5F5F5F5F5F5F5F5F5F5F5F5F5F5F5F5F5F5F5F5F5F5F5F5F5F5F5F5F5F5F5F5F5F5F5F5F5F5F5F5F5E2F5F5F5F5F5F5F5F5F5F5F5F5F5F5F5F5F5F5F5F5F5F5F5F5F5F5F5F5F5F5F5F5F5F5F5F5F5F5F5F5F5E2E2F5E2E2F5E2F5F5F5F5F5F5F5F5F5F5F5F5F5F5F5F5F5F5F5F5F5F5F5F5F5F5F5F5F5F5
310
F5F5F5F5F5F5F5F5F5F5F5F5E2F5F5F5F5E2F5F5F5F5F5F5F5F5F5F5F5F5F5F5F5F5F5F5F5F5F5F5F5F5F5F5F5F5F5F5F5F5F5F5F5F5F5F5F5F5F5F5F5F5F5F5F5F5F5F5F5F5F5F5F5F5F5F5F5F5F5F5F5F5F5F5F5F5F5F5F5F5F5F5F5F5F5F5F5F5F5F5F5E2F5F5F5F5F5F5F5F5F5F5F5F5F5F5F5F5F5F5F5F5F5F5F5F5F5
310
F5F5F5F5F5F5F5F5F5F5F5F5F5F5F5F5E2E2F5E2E2F5E2F5F5F5F5F5F5F5F5F5F5F5F5F5F5F5F5F5F5F5F5F5F5F5F5F5F5F5F5F5F5F5F5F5F5F5F5F5F5F5F5F5F5E2F5F5F5F5E2F5F5F5F5F5F5F5F5F5F5F5F5F5F5F5F5F5F5F5F5F5F5F5F5F5F5F5F5F5F5F5F5F5F5F5F5F5F5F5F5F5F5F5F5F5F5F5F5F5F5F5F5F5F5F5F5
310
F5F5F5F5F5F5F5F5F5F5F5F5F5F5F5F5F5F5F5F5F5F5F5F5F5F5F5E2F5F5F5F5F5F5F5F5F5F5F5F5F5F5F5F5F5F5F5F5F5F5F5F5F5F5F5F5F5F5F5F5F5F5F5F5F5F5F5F5F5E2E2F5E2E2F5E2F5F5F5F5F5F5F5F5F5F5F5F5F5F5F5F5F5F5F5F5F5F5F5F5F5F5F5F5F5F5F5F5F5F5F5F5F5F5F5F5F5F5E2F5F5F5F5E2F5F5F5
310
F5F5F5F5F5F5F5F5F5F5F5F5F5F5F5F5F5F5F5F5F5F5F5F5F5F5F5F5F5F5F5F5F5F5F5F5F5F5F5F5F5F5F5F5F5F5E2E2E2E2E2E2E2F5F5F5F5F5F5F5F5F5F5F5F5F5F5F5F5F5F5F5F5F5F5F5F5F5F5F5E2F5F5F5F5F5F5F5F5F5F5F5F5F5F5F5F5F5F5F5F5F5F5F5F5F5F5F5F5F5F5F5F5F5F5F5F5F5F5F5F5F5E2E2F5E2E2
310
F5E2F5F5F5F5F5F5F5F5F5F5F5F5F5F5F5F5F5F5F5F5F5F5F5F5F5F5F5F5F5F5F5F5F5F5F5F5F5F5F5F5F5F5E2F5F5F5F5F5F5F5F5F5F5F5F5F5F5F5F5F5F5F5F5F5F5F5F5F5E2E2E2E2E2E2E2E2E2E2E2E2E2E2E2E2E2E2E2E2E2E2E2E2E2E2E2E2E2E2F5F5F5F5F5E2E2F5F5F5F5F5F5F5F5F5F5F5F5F5F5F5F5F5F5F5F5
310
F5F5F5F5F5F5F5F5F5F5F5F5F5F5F5F5F5F5F5F5F5F5F5F5F5F5F5F5F5F5F5F5F5F5F5F5F5F5F5F5F5F5F5F5F5F5F5F5E2E2F5E2E2F5E2F5F5F5F5F5F5F5F5F5F5F5F5F5F5F5F5F5F5F5F5F5F5F5F5F5F5F5F5F5F5F5F5F5F5F5F5F5F5F5F5F5F5E2F5F5F5F5E2F5F5F5F5F5F5F5F5F5F5F5F5F5F5F5F5F5F5F5E2E2E2E2E2
310
E2E2E2E2E2E2E2E2E2E2E2E2E2E2E2E2E2E2E2E2E2E2E2E2E2E2F5F5F5F5F5F5E2E2F5F5F5F5F5F5F5F5F5F5F5F5F5F5F5F5F5F5F5F5F5F5F5F5F5E2F5F5F5F5F5F5F5F5F5F5F5F5F5F5F5F5F5F5F5F5F5F5F5F5F5F5F5F5F5F5F5F5F5F5F5F5F5F5F5F5F5E2E2F5E2E2F5E2F5F5F5F5F5F5F5F5F5F5F5F5F5F5F5F5F5F5F5
310
F5F5F5F5F5F5F5F5F5F5F5F5F5F5F5F5F5F5F5F5F5F5F5E2F5F5F5F5E2F5F5F5F5F5F5F5F5F5F5F5F5F5F5F5F5F5F5F5E2E2E2E2E2E2E2E2E2E2E2E2E2E2E2F5F5F5F5F5F5F5F5F5F5F5F5F5F5F5E2F5F5F5F5F5F5F5E2F5F5F5F5F5F5F5F5F5F5F5F5F5F5F5F5F5F5F5F5F5F5F5F5F5E2F5F5F5F5F5F5F5F5F5F5F5F5F5F5
310
F5F5F5F5F5F5F5F5F5F5F5F5F5F5F5F5F5F5F5F5F5F5F5F5F5F5F5E2E2F5E2E2F5E2F5F5F5F5F5F5F5F5F5F5F5F5F5F5F5F5F5F5F5F5F5F5F5F5F5F5F5F5F5F5F5F5F5F5F5F5F5F5F5F5F5F5E2F5F5F5F5E2F5F5F5F5F5F5F5F5F5F5F5F5F5F5F5F5F5F5F5F5E2E2E2E2E2E2E2E2E2E2E2E2E2F5F5F5F5F5F5F5F5F5F5F5F5
310
F5F5F5F5E2E2E2E2F5F5F5F5E2F5F5F5F5F5F5F5F5F5F5F5F5F5F5F5F5F5F5F5F5F5F5F5F5F5E2F5F5F5F5F5F5F5F5F5F5F5F5F5F5F5F5F5F5F5F5F5F5F5F5F5F5F5F5F5F5F5F5F5F5F5F5F5F5F5F5F5E2E2F5E2E2F5E2F5F5F5F5F5F5F5F5F5F5F5F5F5F5F5F5F5F5F5F5F5F5F5F5F5F5F5F5F5F5F5F5F5F5F5F5F5F5F5F5
310
F5F5E2F5F5F5F5E2F5F5F5F5F5F5F5F5F5F5F5F5F5F5F5F5F5F5F5F5E2E2E2E2E2E2E2E2E2E2E2E2E2F5F5F5F5F5F5F5F5F5F5F5F5F5F5F5F5F5F5F5E2E2F5F5F5E2F5F5F5F5F5F5F5F5F5F5F5F5F5F5F5F5F5F5F5F5F5F5F5F5F5E2F5F5F5F5F5F5F5F5F5F5F5F5F5F5F5F5F5F5F5F5F5F5F5F5F5F5F5F5F5F5F5F5F5F5F5
310
F5F5F5F5F5F5E2E2F5E2E2F5E2F5F5F5F5F5F5F5F5F5F5F5F5F5F5F5F5F5F5F5F5F5F5F5F5F5F5F5F5F5F5F5F5F5F5F5F5F5F5F5F5F5F5E2F5F5F5F5E2F5F5F5F5F5F5F5F5F5F5F5F5F5F5F5F5F5F5F5F5E2E2E2E2E2E2E2E2E2E2E2E2E2F5F5F5F5F5F5F5F5F5F5F5F5F5F5F5F5F5F5F5F5E2F5F5F5E2F5F5F5F5F5F5F5F5
310
F5F5F5F5F5F5F5F5F5F5F5F5F5F5F5F5F5E2F5F5F5F5F5F5F5F5F5F5F5F5F5F5F5F5F5F5F5F5F5F5F5F5F5F5F5F5F5F5F5F5F5F5F5F5F5F5F5F5F5E2E2F5E2E2F5E2F5F5F5F5F5F5F5F5F5F5F5F5F5F5F5F5F5F5F5F5F5F5F5F5F5F5F5F5F5F5F5F5F5F5F5F5F5F5F5F5F5F5E2F5F5F5F5E2F5F5F5F5F5F5F5F5F5F5F5F5F5
310
F5F5F5F5F5F5F5E2E2E2E2E2E2E2E2E2E2E2E2E2F5F5F5F5F5F5F5F5F5F5F5F5F5F5F5F5F5F5F5F5E2E2F5F5E2F5F5F5F5F5F5F5F5F5F5F5F5F5F5F5F5F5F5F5F5F5F5F5F5F5E2F5F5F5F5F5F5F5F5F5F5F5F5F5F5F5F5F5F5F5F5F5F5F5F5F5F5F5F5F5F5F5F5F5F5F5F5F5F5F5F5F5E2E2F5E2E2F5E2F5F5F5F5F5F5F5F5
310
F5F5F5F5F5F5F5F5F5F5F5F5F5F5F5F5F5F5F5F5F5F5F5F5F5F5F5F5F5F5F5F5F5F5E2F5F5F5F5E2F5F5F5F5F5F5F5F5F5F5F5F5F5F5F5F5F5F5F5F5E2F5F5F5F5F5F5F5F5F5F5E2E2F5F5F5F5F5F5F5F5F5F5F5F5F5F5F5F5F5F5F5F5F5E2F5F5E2F5F5F5F5F5F5F5F5F5F5F5F5F5F5F5F5F5F5F5F5F5F5F5F5F5E2F5F5F5
310
F5F5F5F5F5F5F5F5F5F5F5F5F5F5F5F5F5F5F5F5F5F5F5F5F5F5F5F5F5F5F5F5F5F5F5F5F5F5E2E2F5E2E2F5E2F5F5F5F5F5F5F5F5F5F5F5F5F5F5F5F5F5F5F5F5F5F5F5F5F5F5F5F5F5F5F5F5F5F5F5F5F5F5F5F5F5F5E2F5F5F5F5E2F5F5F5F5F5F5F5F5F5F5F5F5F5F5F5F5F5F5F5F5E2E2E2E2E2E2E2E2E2E2E2E2E2F5
310
F5F5F5F5F5F5F5F5F5F5F5F5F5F5F5F5F5F5F5F5E2E2E2E2F5F5F5F5F5F5F5F5F5F5F5F5F5F5F5F5F5F5F5F5F5F5F5F5F5E2F5F5F5F5F5F5F5F5F5F5F5F5F5F5F5F5F5F5F5F5F5F5F5F5F5F5F5F5F5F5F5F5F5F5F5F5F5F5F5F5F5E2E2F5E2E2F5E2F5F5F5F5F5F5F5F5F5F5F5F5F5F5F5F5F5F5F5F5F5F5F5F5F5F5F5F5F5
310
F5F5F5F5F5F5F5F5F5E2E2E2E2E2F5F5F5F5F5F5F5F5F5F5F5F5F5F5F5F5F5F5F5F5F5F5F5F5F5E2E2E2E2E2E2E2E2E2E2E2E2E2F5F5F5F5F5F5F5F5F5F5F5F5F5F5F5F5F5F5F5F5F5F5E2E2E2F5F5F5F5F5F5F5F5F5F5F5F5F5F5F5F5F5F5F5F5F5F5F5F5F5F5F5F5F5F5F5F5F5F5F5F5F5F5F5F5F5F5F5F5F5F5F5F5F5F5
310
F5F5F5F5F5F5F5F5F5F5F5F5F5F5F5F5F5E2E2F5E2E2F5E2F5F5F5F5F5F5F5F5F5F5F5F5F5F5F5F5F5F5F5F5F5F5F5F5F5F5F5F5F5F5F5F5F5F5F5F5F5F5E2E2E2E2E2F5F5F5F5E2F5F5F5F5F5F5F5F5F5F5F5F5F5F5F5F5F5F5F5F5E2E2E2E2E2E2E2E2E2E2E2E2E2F5F5F5F5F5F5F5F5F5F5F5F5F5F5F5F5F5F5F5F5F5F5
310
E2E2E2F5F5F5F5F5F5F5F5F5F5F5F5F5F5F5F5F5F5F5F5F5F5F5F5F5E2F5F5F5F5F5F5F5F5F5F5F5F5F5F5F5F5F5F5F5F5F5F5F5F5F5F5F5F5F5F5F5F5F5F5F5F5F5F5F5F5F5E2E2F5E2E2F5E2F5F5F5F5F5F5F5F5F5F5F5F5F5F5F5F5F5F5F5F5F5F5F5F5F5F5F5F5F5F5F5F5F5F5F5F5F5F5E2E2E2E2E2F5F5F5F5E2F5F5
310
F5F5F5F5F5F5F5F5F5F5F5F5F5F5F5F5E2E2E2E2E2E2E2E2E2E2E2E2E2E2E2F5F5F5F5F5F5F5F5F5F5F5F5F5F5F5F5F5F5F5F5F5F5E2E2E2F5F5F5F5F5F5F5F5F5F5F5F5F5F5F5F5F5F5F5F5F5F5F5F5F5E2F5F5F5F5F5F5F5F5F5F5F5F5F5F5F5F5F5F5F5F5F5F5F5F5F5F5F5F5F5F5F5F5F5F5F5F5F5F5F5F5F5E2E2F5E2
310
E2F5E2F5F5F5F5F5F5F5F5F5F5F5F5F5F5F5F5F5F5F5F5F5F5F5F5F5F5F5F5F5F5F5F5F5F5F5F5F5F5E2E2E2E2E2F5F5F5F5E2F5F5F5F5F5F5F5F5F5F5F5F5F5F5F5F5F5F5E2F5F5F5F5F5E2E2E2F5F5F5F5F5E2F5F5F5F5F5F5F5F5F5F5F5F5F5F5F5F5F5F5F5F5F5F5E2E2E2F5F5F5F5F5F5F5F5F5F5F5F5F5F5F5F5F5F5
310
F5F5F5F5F5F5F5E2F5F5F5F5F5F5F5F5F5F5F5F5F5F5F5F5F5F5F5F5F5F5F5F5F5F5F5F5F5F5F5F5F5F5F5F5F5F5F5F5F5E2F5F5E2E2F5E2F5F5F5F5F5F5F5F5F5F5F5F5F5F5F5F5F5F5F5F5F5F5F5F5F5F5F5F5F5F5F5F5F5F5F5F5F5F5E2E2E2E2E2F5F5F5F5E2F5F5F5F5F5F5F5F5F5F5F5F5F5F5F5F5F5F5E2F5F5F5F5
310
F5F5E2F5F5F5F5F5F5E2F5F5F5F5F5F5F5F5F5F5F5F5F5F5F5F5F5F5F5F5F5F5E2E2E2F5F5F5F5F5F5F5F5F5F5F5F5F5F5F5F5F5F5F5F5F5F5F5F5F5E2F5F5F5F5F5F5F5F5F5F5F5F5F5F5F5F5F5F5F5F5F5F5F5F5F5F5F5F5F5F5F5F5F5F5F5F5F5F5F5F5F5E2F5F5E2E2F5E2F5F5F5F5F5F5F5F5F5F5F5F5F5F5F5F5F5F5
310
F5F5F5F5F5F5F5F5F5F5F5F5F5F5F5F5F5F5F5F5F5F5F5F5E2F5F5F5F5E2F5F5F5F5F5F5F5F5F5F5F5F5F5F5F5F5F5F5E2F5F5F5F5F5F5E2F5F5F5F5F5F5E2F5F5F5F5F5F5F5F5F5F5F5F5F5F5F5F5F5F5F5F5F5F5E2E2E2F5F5F5F5F5F5F5F5F5F5F5F5F5F5F5F5F5F5F5F5F5F5F5F5F5E2F5F5F5F5F5F5F5F5F5F5F5F5F5
310
F5F5F5F5F5F5F5F5F5F5F5F5F5F5F5F5F5F5F5F5F5F5F5F5F5F5F5F5E2F5F5E2E2F5E2F5F5F5F5F5F5F5F5F5F5F5F5F5F5F5F5F5F5F5F5F5F5F5F5F5F5F5F5F5F5F5F5F5F5F5F5F5F5F5F5F5F5E2F5F5F5F5E2F5F5F5F5F5F5F5F5F5F5F5F5F5F5F5F5F5F5E2F5F5F5F5F5F5E2F5F5F5F5F5F5E2F5F5F5F5F5F5F5F5F5F5F5
310
F5F5F5F5F5F5F5F5F5F5F5E2E2E2F5F5F5F5F5F5F5F5F5F5F5F5F5F5F5F5F5F5F5F5F5F5F5F5F5E2F5F5F5F5F5F5F5F5F5F5F5F5F5F5F5F5F5F5F5F5F5F5F5F5F5F5F5F5F5F5F5F5F5F5F5F5F5F5F5F5F5E2F5F5E2E2F5E2F5F5F5F5F5F5F5F5F5F5F5F5F5F5F5F5F5F5F5F5F5F5F5F5F5F5F5F5F5F5F5F5F5F5F5F5F5F5F5
310
F5F5F5E2F5F5F5F5E2F5F5F5F5F5F5F5F5F5F5F5F5F5F5F5F5F5F5E2F5F5F5F5F5F5E2F5F5F5F5F5F5E2F5F5F5F5F5F5F5F5F5F5F5F5F5F5F5F5F5F5F5F5F5F5E2E2E2F5F5F5F5F5F5F5F5F5F5F5F5F5F5F5F5F5F5F5F5F5F5F5F5F5E2F5F5F5F5F5F5F5F5F5F5F5F5F5F5F5F5F5F5F5F5F5F5F5F5F5F5F5F5F5F5F5F5F5F5
310
F5F5F5F5F5F5F5E2F5F5E2E2F5E2F5F5F5F5F5F5F5F5F5F5F5F5F5F5F5F5F5F5F5F5F5F5F5F5F5F5F5F5F5F5F5F5F5F5F5F5F5F5F5F5F5F5E2F5F5F5F5E2F5F5F5F5F5F5F5F5F5F5F5F5F5F5F5F5F5F5E2F5F5F5F5F5F5E2F5F5F5F5F5F5E2E2E2F5F5F5F5F5F5F5F5F5F5F5F5F5F5F5F5F5F5F5F5E2E2E2F5F5F5F5F5F5F5
310
F5F5F5F5F5F5F5F5F5F5F5F5F5F5F5F5F5F5E2F5F5F5F5F5F5F5F5F5F5F5F5F5F5F5F5F5F5F5F5F5F5F5F5F5F5F5F5F5F5F5F5F5F5F5F5F5F5F5F5F5E2F5F5E2E2F5E2F5F5F5F5F5F5F5F5F5F5F5F5F5F5F5F5F5F5F5F5F5F5F5F5F5F5F5F5F5F5F5F5F5F5F5F5F5F5F5F5F5F5E2F5F5F5F5F5F5F5F5F5F5F5F5F5F5F5F5F5
310
F5F5F5F5F5F5E2F5F5F5F5F5F5E2F5F5F5F5F5F5E2F5E2E2F5F5F5F5F5F5F5F5F5F5F5F5F5F5F5F5F5F5F5E2E2E2F5F5F5F5F5F5F5F5F5F5F5F5F5F5F5F5F5F5F5F5F5F5F5F5F5F5F5F5F5F5F5F5F5F5F5F5F5F5F5F5F5F5F5F5F5F5F5F5F5F5F5F5F5F5F5F5F5F5F5F5F5F5F5F5F5F5F5E2F5F5E2E2F5E2F5F5F5F5F5F5F5
310
F5F5F5F5F5F5F5F5F5F5F5F5F5F5F5F5F5F5F5F5F5F5F5F5F5F5F5F5F5F5F5F5F5F5F5E2F5F5F5F5E2F5F5F5F5F5F5F5F5F5F5F5F5F5F5F5F5F5F5E2F5F5F5F5F5F5E2F5F5F5F5F5F5E2F5F5E2F5F5F5F5F5F5F5F5F5F5F5F5F5F5F5F5F5F5F5E2E2E2F5F5F5F5F5F5F5F5F5F5F5F5F5F5F5F5F5F5F5F5F5F5F5F5F5E2F5F5
310
F5F5F5F5F5F5F5F5F5F5F5F5F5F5F5F5F5F5F5F5F5F5F5F5F5F5F5F5F5F5F5F5F5F5F5F5F5F5F5E2F5F5E2E2F5E2F5F5F5F5F5F5F5F5F5F5F5F5F5F5F5F5F5F5F5F5F5F5F5F5F5F5F5F5F5F5F5F5F5F5F5F5F5F5F5F5F5F5E2F5F5F5F5E2F5F5F5F5F5F5F5F5F5F5F5F5F5F5F5F5F5F5E2F5F5F5F5F5F5E2F5F5F5F5F5F5E2
310
F5F5E2F5F5F5F5F5F5F5F5F5F5F5F5F5F5F5F5F5F5F5E2E2E2F5F5F5F5F5F5F5F5F5F5F5F5F5F5F5F5F5F5F5F5F5F5F5F5F5E2F5F5F5F5F5F5F5F5F5F5F5F5F5F5F5F5F5F5F5F5F5F5F5F5F5F5F5F5F5F5F5F5F5F5F5F5F5F5F5F5F5E2F5F5E2E2F5E2F5F5F5F5F5F5F5F5F5F5F5F5F5F5F5F5F5F5F5F5F5F5F5F5F5F5F5F5
310
F5F5F5F5F5F5F5F5F5F5F5F5F5F5E2F5F5F5F5E2F5F5F5F5F5F5F5F5F5F5F5F5F5F5F5F5F5F5E2F5F5F5F5F5F5E2F5F5F5F5F5F5E2F5F5F5E2F5F5F5F5F5F5F5F5F5F5F5F5F5F5F5F5F5F5E2E2E2F5F5F5F5F5F5F5F5F5F5F5F5F5F5F5F5F5F5F5F5F5F5F5F5F5E2F5F5F5F5F5F5F5F5F5F5F5F5F5F5F5F5F5F5F5F5F5F5F5
310
F5F5F5F5F5F5F5F5F5F5F5F5F5F5F5F5F5F5E2E2F5E2E2F5E2F5F5F5F5F5F5F5F5F5F5F5F5F5F5F5F5F5F5F5F5F5F5F5F5F5F5F5F5F5F5F5F5F5F5F5F5F5F5F5F5F5F5E2F5F5F5F5E2F5F5F5F5F5F5F5F5F5F5F5F5F5F5F5F5F5F5E2F5F5F5F5F5F5E2F5F5F5F5F5F5E2F5F5F5F5E2E2F5F5F5F5F5F5F5F5F5F5F5F5F5F5F5
310
F5E2E2E2F5F5F5F5F5F5F5F5F5F5F5F5F5F5F5F5F5F5F5F5F5F5F5F5F5E2F5F5F5F5F5F5F5F5F5F5F5F5F5F5F5F5F5F5F5F5F5F5F5F5F5F5F5F5F5F5F5F5F5F5F5F5F5F5F5F5F5E2E2F5E2E2F5E2F5F5F5F5F5F5F5F5F5F5F5F5F5F5F5F5F5F5F5F5F5F5F5F5F5F5F5F5F5F5F5F5F5F5F5F5F5F5F5F5F5F5E2F5F5F5F5E2F5
310
F5F5F5F5F5F5F5F5F5F5F5F5F5F5F5F5F5E2F5F5F5F5F5F5E2F5F5F5F5F5F5E2F5F5F5F5F5E2E2E2F5F5F5F5F5F5F5F5F5F5F5F5F5E2E2E2E2F5F5F5F5F5F5F5F5F5F5F5F5F5F5F5F5F5F5F5F5F5F5F5F5F5E2F5F5F5F5F5F5F5F5F5F5F5F5F5F5F5F5F5F5F5F5F5F5F5F5F5F5F5F5F5F5F5F5F5F5F5F5F5F5F5F5F5E2E2F5
310
E2E2F5E2F5F5F5F5F5F5F5F5F5F5F5F5F5F5F5F5F5F5F5F5F5F5F5F5F5F5F5F5F5F5F5F5F5F5F5F5F5F5F5F5F5F5E2F5F5F5F5E2F5F5F5F5F5F5F5F5F5F5F5F5F5F5F5F5F5F5E2F5F5F5F5F5E2E2E2F5F5F5F5F5E2F5F5F5F5F5F5F5E2E2E2E2E2E2E2E2E2E2E2E2E2E2E2E2E2E2F5F5F5F5F5F5F5F5F5F5F5F5F5F5F5F5F5
310
F5F5F5F5F5F5F5F5E2F5F5F5F5F5F5F5F5F5F5F5F5F5F5F5F5F5F5F5F5F5F5F5F5F5F5F5F5F5F5F5F5F5F5F5F5F5F5F5F5F5E2E2F5E2E2F5E2F5F5F5F5F5F5F5F5F5F5F5F5F5F5F5F5F5F5F5F5F5F5F5F5F5F5F5F5F5F5F5F5F5F5F5F5F5F5F5F5F5F5E2F5F5F5F5E2F5F5F5F5F5F5F5F5F5F5F5F5F5F5F5F5F5F5E2E2E2E2
310
E2E2E2E2E2E2E2E2E2E2E2E2F5F5F5F5F5F5E2E2E2E2E2E2E2E2E2E2E2E2E2E2E2E2E2F5F5F5F5F5F5F5F5F5F5F5F5F5F5F5F5F5F5F5F5F5F5F5F5F5F5E2F5F5F5F5F5F5F5F5F5F5F5F5F5F5F5F5F5F5F5F5F5F5F5F5F5F5F5F5F5F5F5F5F5F5F5F5F5F5F5F5F5E2E2F5E2E2F5E2F5F5F5F5F5F5F5F5F5F5F5F5F5F5F5F5F5
310
F5F5F5F5F5F5F5F5F5F5F5F5F5F5F5F5F5F5F5F5F5F5F5F5F5E2F5F5F5F5E2F5F5F5F5F5F5F5F5F5F5F5F5F5F5F5F5F5F5F5F5F5F5F5F5F5F5F5F5F5F5F5F5F5E2E2E2E2E2E2E2E2F5F5F5F5F5F5F5F5F5F5F5F5F5F5F5F5F5F5F5F5F5F5F5F5F5F5F5F5F5F5F5F5F5F5F5F5F5F5F5F5F5F5E2F5F5F5F5F5F5F5F5F5F5F5F5
310
F5F5F5F5F5F5F5F5F5F5F5F5F5F5F5F5F5F5F5F5F5F5F5F5F5F5F5F5F5E2E2F5E2E2F5E2F5F5F5F5F5F5F5F5F5F5F5F5F5F5F5F5F5F5F5F5F5F5F5F5F5F5F5F5F5F5F5F5F5F5F5F5F5F5F5F5F5F5E2F5F5F5F5F5F5F5F5F5F5F5F5F5F5F5F5F5F5F5F5F5F5F5F5F5F5F5F5F5F5F5F5F5F5F5F5F5F5F5F5F5F5F5F5F5F5F5F5
310
F5F5F5F5F5F5F5F5F5F5F5F5F5F5F5F5F5F5F5F5F5F5F5F5F5F5F5F5F5F5F5F5F5F5F5F5F5F5F5F5F5F5F5F5F5F5F5F5F5F5F5F5F5F5F5F5F5F5F5F5F5F5F5F5F5F5F5F5F5F5F5F5F5F5F5F5F5F5F5F5F5F5E2E2F5E2E2F5E2F5F5F5F5F5F5F5F5F5F5F5F5F5F5F5F5F5F5F5F5F5F5F5F5F5F5F5F5F5F5F5F5F5F5F5F5F5F5
310
F5F5F5F5E2F5F5F5F5E2F5F5F5F5F5F5F5F5F5F5F5F5F5F5F5F5F5F5F5F5F5F5F5F5F5F5F5F5F5F5F5F5F5F5F5F5F5F5F5F5F5F5F5F5F5F5F5F5F5F5F5F5F5F5F5F5F5F5F5F5F5F5F5F5F5F5F5F5F5F5F5F5F5F5F5F5F5F5F5F5F5F5F5E2F5F5F5F5F5F5F5F5F5F5F5F5F5F5F5F5F5F5F5F5F5F5F5F5F5F5F5F5F5F5F5F5F5
310
F5F5F5F5F5F5F5F5E2E2F5E2E2F5E2F5F5F5F5F5F5F5F5F5F5F5F5F5F5F5F5F5F5F5F5F5F5F5F5F5F5F5F5F5F5F5F5F5F5F5F5F5F5F5F5F5F5E2F5F5F5F5E2F5F5F5F5F5F5F5F5F5F5F5F5F5F5F5F5F5F5F5F5F5F5F5F5F5F5F5F5F5F5F5F5F5F5F5F5F5F5F5F5F5F5F5F5F5F5F5F5F5F5F5F5F5F5F5F5F5F5F5F5F5F5F5F5
310
F5F5F5F5F5F5F5F5F5F5F5F5F5F5F5F5F5F5F5E2F5F5F5F5F5F5F5F5F5F5F5F5F5F5F5F5F5F5F5F5F5F5F5F5F5F5F5F5F5F5F5F5F5F5F5F5F5F5F5F5F5E2E2F5E2E2F5E2F5F5F5F5F5F5F5F5F5F5F5F5F5F5F5F5F5F5F5F5F5F5F5F5F5F5F5F5F5F5F5F5F5F5F5F5F5F5F5F5F5F5E2F5F5F5F5E2F5F5F5F5F5F5F5F5F5F5F5
310
F5F5F5F5F5F5F5F5F5F5F5F5F5F5F5F5F5F5F5F5F5F5F5F5F5F5F5F5F5F5F5F5F5F5F5F5F5F5F5F5F5F5F5F5F5F5F5F5F5F5F5F5F5F5F5F5F5F5F5F5F5F5F5F5F5F5F5F5F5F5F5F5E2F5F5F5F5F5F5F5F5F5F5F5F5F5F5F5F5F5F5F5F5F5F5F5F5F5F5F5F5F5F5F5F5F5F5F5F5F5F5F5F5F5E2E2F5E2E2F5E2F5F5F5F5F5F5
310
F5F5F5F5F5F5F5F5F5F5F5F5F5F5F5F5F5F5F5F5F5F5F5F5F5F5F5F5F5F5F5F5F5F5F5F5E2F5F5F5F5E2F5F5F5F5F5F5F5F5F5F5F5F5F5F5F5F5F5F5F5F5F5F5F5F5F5F5F5F5F5F5F5F5F5F5F5F5F5F5F5F5F5F5F5F5F5F5F5F5F5F5F5F5F5F5F5F5F5F5F5F5F5F5F5F5F5F5F5F5F5F5F5F5F5F5F5F5F5F5F5F5F5F5F5E2F5
310
F5F5F5F5F5F5F5F5F5F5F5F5F5F5F5F5F5F5F5F5F5F5F5F5F5F5F5F5F5F5F5F5F5F5F5F5F5F5F5F5E2E2F5E2E2F5E2F5F5F5F5F5F5F5F5F5F5F5F5F5F5F5F5F5F5F5F5F5F5F5F5F5F5F5F5F5F5F5F5F5F5F5F5F5F5F5F5F5F5E2F5F5F5F5E2F5F5F5F5F5F5F5F5F5F5F5F5F5F5F5F5F5F5F5F5F5F5F5F5F5F5F5F5F5F5F5F5
310
F5F5F5F5F5F5F5F5F5F5F5F5F5F5F5F5F5F5F5F5F5F5F5F5F5F5F5F5F5F5F5F5F5F5F5F5F5F5F5F5F5F5F5F5F5F5F5F5F5F5F5E2F5F5F5F5F5F5F5F5F5F5F5F5F5F5F5F5F5F5F5F5F5F5F5F5F5F5F5F5F5F5F5F5F5F5F5F5F5F5F5F5F5E2E2F5E2E2F5E2F5F5F5F5F5F5F5F5F5F5F5F5F5F5F5F5F5F5F5F5F5F5F5F5F5F5F5
310
F5F5F5F5F5F5F5F5F5F5F5F5F5F5F5E2F5F5F5F5E2F5F5F5F5F5F5F5F5F5F5F5F5F5F5F5F5F5F5F5F5F5F5F5F5F5F5F5F5F5F5F5F5F5F5F5F5F5F5F5F5F5F5F5F5F5F5F5F5F5F5F5F5F5F5F5F5F5F5F5F5F5F5F5F5F5F5F5F5F5F5F5F5F5F5F5F5F5F5F5F5F5F5F5E2F5F5F5F5F5F5F5F5F5F5F5F5F5F5F5F5F5F5F5F5F5F5
310
F5F5F5F5F5F5F5F5F5F5F5F5F5F5F5F5F5F5F5E2E2F5E2E2F5E2F5F5F5F5F5F5F5F5F5F5F5F5F5F5F5F5F5F5F5F5F5F5F5F5F5F5F5F5F5F5F5F5F5F5F5F5F5F5F5F5F5F5E2F5F5F5F5E2F5F5F5F5F5F5F5F5F5F5F5F5F5F5F5F5F5F5F5F5F5F5F5F5F5F5F5F5F5F5F5F5F5F5F5F5F5F5F5F5F5F5F5F5F5F5F5F5F5F5F5F5F5
310
F5F5F5F5F5F5F5F5F5F5F5F5F5F5F5F5F5F5F5F5F5F5F5F5F5F5F5F5F5F5E2F5F5F5F5F5F5F5F5F5F5F5F5F5F5F5F5F5F5F5F5F5F5F5F5F5F5F5F5F5F5F5F5F5F5F5F5F5F5F5F5F5E2E2F5E2E2F5E2F5F5F5F5F5F5F5F5F5F5F5F5F5F5F5F5F5F5F5F5F5F5F5F5F5F5F5F5F5F5F5F5F5F5F5F5F5F5F5F5F5F5E2F5F5F5F5E2
310
F5F5F5F5F5F5F5F5F5F5F5F5F5F5F5F5F5F5F5F5F5F5F5F5F5F5F5F5F5F5F5F5F5F5F5F5F5F5F5F5F5F5F5F5F5F5F5F5F5F5F5F5F5F5F5F5F5F5F5F5F5F5F5F5F5F5F5F5F5F5F5F5F5F5F5F5F5F5F5F5F5F5F5E2F5F5F5F5F5F5F5F5F5F5F5F5F5F5F5F5F5F5F5F5F5F5F5F5F5F5F5F5F5F5F5F5F5F5F5F5F5F5F5F5F5E2E2
310
F5E2E2F5E2F5F5F5F5F5F5F5F5F5F5F5F5F5F5F5F5F5F5F5F5F5F5F5F5F5F5F5F5F5F5F5F5F5F5F5F5F5F5F5F5F5F5E2F5F5F5F5F5F5F5F5F5F5F5F5F5F5F5F5F5F5F5F5F5F5F5F5F5F5F5F5F5F5F5F5F5F5F5F5F5F5F5F5F5F5F5F5F5F5F5F5F5F5F5F5F5F5F5F5F5F5F5F5F5F5F5F5F5F5F5F5F5F5F5F5F5F5F5F5F5F5F5
310
F5F5F5F5F5F5F5F5F5F5F5F5F5F5F5F5F5F5F5F5F5F5F5F5F5F5F5F5F5F5F5F5F5F5F5F5F5F5F5F5F5F5F5F5F5F5F5F5F5F5F5E2E2F5E2E2F5E2F5F5F5F5F5F5F5F5F5F5F5F5F5F5F5F5F5F5F5F5F5F5F5F5F5F5F5F5F5F5F5F5F5F5F5F5F5F5F5F5F5F5E2F5F5F5F5E2F5F5F5F5F5F5F5F5F5F5F5F5F5F5F5F5F5F5F5F5F5
310
F5F5F5F5F5F5F5F5F5F5F5F5F5F5F5F5F5F5F5F5F5F5F5F5F5F5F5F5F5F5F5F5F5F5F5F5F5F5F5F5F5F5F5F5F5F5F5F5F5F5F5F5F5F5F5F5F5F5F5F5F5F5E2F5F5F5F5F5F5F5F5F5F5F5F5F5F5F5F5F5F5F5F5F5F5F5F5F5F5F5F5F5F5F5F5F5F5F5F5F5F5F5F5F5E2F5F5E2E2F5E2F5F5F5F5F5F5F5F5F5F5F5F5F5F5F5F5
310
F5F5F5F5F5F5F5F5F5F5F5F5F5F5F5F5F5F5F5F5F5F5F5F5F5F5E2F5F5F5F5E2F5F5F5F5F5F5F5F5F5F5F5F5F5F5F5F5F5F5F5F5F5F5F5F5F5F5F5F5F5F5F5F5F5F5F5F5F5F5F5F5F5F5F5F5F5F5F5F5F5F5F5F5F5F5F5F5F5F5F5F5F5F5F5F5F5F5F5F5F5F5F5F5F5F5F5F5F5F5F5F5F5F5F5E2F5F5F5F5F5F5F5F5F5F5F5
310
F5F5F5F5F5F5F5F5F5F5F5F5F5F5F5F5F5F5F5F5F5F5F5F5F5F5F5F5F5F5E2F5F5E2E2F5E2F5F5F5F5F5F5F5F5F5F5F5F5F5F5F5F5F5F5F5F5F5F5F5F5F5F5F5F5F5F5F5F5F5F5F5F5F5F5F5F5F5F5E2F5F5F5F5E2F5F5F5F5F5F5F5F5F5F5F5F5F5F5F5F5F5F5F5F5F5F5F5F5F5F5F5F5F5F5F5F5F5F5F5F5F5F5F5F5F5F5
310
F5F5F5F5F5F5F5F5F5F5F5F5F5F5F5F5F5F5F5F5F5F5F5F5F5F5F5F5F5F5F5F5F5F5F5F5F5F5F5F5F5E2F5F5F5F5F5F5F5F5F5F5F5F5F5F5F5F5F5F5F5F5F5F5F5F5F5F5F5F5F5F5F5F5F5F5F5F5F5F5F5F5F5E2F5F5E2E2F5E2F5F5F5F5F5F5F5F5F5F5F5F5F5F5F5F5F5F5F5F5F5F5F5F5F5F5F5F5F5F5F5F5F5F5F5F5F5
310
F5F5F5F5F5E2F5F5F5F5E2F5F5F5F5F5F5F5F5F5F5F5F5F5F5F5F5F5F5F5F5F5F5F5F5F5F5F5F5F5F5F5F5F5F5F5F5F5F5F5F5F5F5F5F5F5F5F5F5F5F5F5F5F5F5F5F5F5F5F5F5F5F5F5F5F5F5F5F5F5F5F5F5F5F5F5F5F5F5F5F5F5F5F5E2F5F5F5F5F5F5F5F5F5F5F5F5F5F5F5F5F5F5F5F5F5F5F5F5F5F5F5F5F5F5F5F5
310
F5F5F5F5F5F5F5F5F5E2F5F5E2E2F5E2F5F5F5F5F5F5F5F5F5F5F5F5F5F5F5F5F5F5F5F5F5F5F5F5F5F5F5F5F5F5F5F5F5F5F5F5F5F5F5F5F5F5E2F5F5F5F5E2F5F5F5F5F5F5F5F5F5F5F5F5F5F5F5F5F5F5F5F5F5F5F5F5F5F5F5F5F5F5F5F5F5F5F5F5F5F5F5F5F5F5F5F5F5F5F5F5F5F5F5F5F5F5F5F5F5F5F5F5F5F5F5
310
F5F5F5F5F5F5F5F5F5F5F5F5F5F5F5F5F5F5F5F5E2F5F5F5F5F5F5F5F5F5F5F5F5F5F5F5F5F5F5F5F5F5F5F5F5F5F5F5F5F5F5F5F5F5F5F5F5F5F5F5F5F5E2F5F5E2E2F5E2F5F5F5F5F5F5F5F5F5F5F5F5F5F5F5F5F5F5F5F5F5F5F5F5F5F5F5F5F5F5F5F5F5F5F5F5F5F5F5F5F5F5E2F5F5F5F5E2F5F5F5F5F5F5F5F5F5F5
310
F5F5F5F5F5F5F5F5F5F5F5F5F5F5F5F5F5F5F5F5F5F5F5F5F5F5F5F5F5F5F5F5F5F5F5F5F5F5F5F5F5F5F5F5F5F5F5F5F5F5F5F5F5F5F5F5F5F5F5F5F5F5F5F5F5F5F5F5F5F5F5F5F5E2F5F5F5F5F5F5F5F5F5F5F5F5F5F5F5F5F5F5F5F5F5F5F5F5F5F5F5F5F5F5F5F5F5F5F5F5F5F5F5F5F5E2F5F5E2E2F5E2F5F5F5F5F5
310
F5F5F5F5F5F5F5F5F5F5F5F5F5F5F5F5F5F5F5F5F5F5F5F5F5F5F5F5F5F5F5F5F5F5F5F5F5E2BEF5F5F5E2F5F5F5F5F5F5F5F5F5F5F5F5F5F5F5F5F5F5F5F5F5F5F5F5F5F5F5F5F5F5F5F5F5F5F5F5F5F5F5F5F5F5F5F5F5F5F5F5F5F5F5F5F5F5F5F5F5F5F5F5F5F5F5F5F5F5F5F5F5F5F5F5F5F5F5F5F5F5F5F5F5F5F5E2
310
F5F5F5F5F5F5F5F5F5F5F5F5F5F5F5F5F5F5F5F5F5F5F5F5F5F5F5F5F5F5F5F5F5F5F5F5F5F5F5F5F5E2F5F5E2E2F5E2F5F5F5F5F5F5F5F5F5F5F5F5F5F5F5F5F5F5F5F5F5F5F5F5F5F5F5F5F5F5F5F5F5F5F5F5F5F5F5F5F5E2E2E2E2F5F5E2E2E2E2F5E2E2E2E2E2E2E2E2E2E2E2E2F5E2E2E2E2E2E2E2E2F5E2E2E2E2E2
310
E2E2E2F5E2E2E2E2E2E2E2E2F5E2E2E2E2E2E2E2E2F5E2E2E2E2E2E2E2E2F5E2E2E2E2E2E2E2E2F5E2E2E2E2E2E2E2E2F5E2E2E2E2F5F5F5F5F5F5F5F5F5F5F5F5F5F5F5F5F5F5F5F5F5F5F5F5F5F5F5F5F5F5F5F5F5F5F5F5F5F5F5F5F5E2F5F5E2E2F5E2F5F5F5F5F5F5F5F5F5F5F5F5F5F5F5F5F5F5F5F5F5F5F5F5F5F5
310
F5F5F5F5F5F5F5F5F5F5F5F5F5F5F5BEE2F5F5F5F5F5F5F5F5F5F5F5F5F5F5F5F5F5F5F5F5F5F5F5F5F5F5F5F5F5F5F5F5F5F5F5F5F5F5F5F5F5F5F5F5F5F5F5F5F5F5F5F5F5F5F5F5F5F5F5F5F5F5F5F5F5F5F5F5F5F5F5F5F5F5F5F5F5F5F5F5F5F5F5F5F5F5F5F5F5F5F5F5F5F5F5F5F5F5F5F5F5F5F5F5F5F5F5F5F5F5
310
F5F5F5F5F5F5F5F5F5F5F5F5F5F5F5F5F5F5F5F5E2E2F5E2E2F5E2F5F5F5F5F5F5F5F5F5F5F5F5F5F5F5F5F5F5F5F5F5F5F5F5F5F5F5F5F5F5F5F5F5F5F5F5F5F5F5F5F5F5F5F5F5F5F5F5F5F5F5F5F5F5F5F5F5F5F5F5F5F5F5F5F5F5F5F5F5F5F5F5F5F5F5F5F5F5F5F5F5F5F5F5F5F5F5F5F5F5F5F5F5F5F5F5F5F5F5F5
310
F5F5F5F5F5F5F5F5F5F5F5F5F5F5F5F5F5F5F5F5F5F5F5F5F5F5F5F5F5F5F5F5F5F5F5F5F5F5F5F5F5F5F5F5F5F5F5F5F5F5F5F5F5F5F5F5F5F5F5F5F5F5F5F5F5F5F5F5F5F5F5F5F5E2E2F5E2E2F5E2F5F5F5F5F5F5F5F5F5F5F5F5F5F5F5F5F5F5F5F5F5F5F5F5F5F5F5F5F5F5F5F5F5F5F5F5F5F5F5F5F5F5F5F5F5F5F5
310
F5F5F5F5F5F5F5F5F5F5F5F5F5F5F5F5F5F5F5F5F5F5F5F5F5F5F5F5F5F5F5F5F5F5F5F5F5F5F5F5F5F5F5F5F5F5F5F5F5F5F5F5F5F5F5F5F5F5F5F5F5F5F5F5F5F5F5F5F5F5F5F5F5F5F5F5F5F5F5F5F5F5F5F5F5F5F5F5F5F5F5F5F5F5F5F5F5F5F5F5F5F5F5F5F5F5F5F5F5F5F5F5F5F5F5F5F5F5F5F5F5F5F5F5F5F5E2
310
E2F5E2E2F5E2F5F5F5F5F5F5F5F5F5F5F5F5F5F5F5F5F5F5F5F5F5F5F5F5F5F5F5F5F5F5F5F5F5F5F5F5F5F5F5F5F5F5F5F5F5F5BEE2F5F5F5F5F5F5F5F5F5F5F5F5F5F5F5F5F5F5F5F5F5F5F5F5F5F5F5F5F5F5F5F5F5F5F5F5F5F5F5F5F5F5F5F5F5F5F5F5F5F5F5F5F5F5F5F5F5F5F5F5F5F5F5F5F5F5F5F5F5F5F5F5F5
310
F5F5F5F5F5F5F5F5F5BEE2F5F5F5F5F5F5F5F5F5F5F5F5F5F5F5F5F5F5F5F5F5F5F5F5F5F5F5F5F5F5F5F5F5F5F5F5F5F5F5F5F5E2E2F5E2E2F5E2F5F5F5F5F5F5F5F5F5F5F5F5F5F5F5F5F5F5F5F5F5F5F5F5F5F5F5F5F5F5F5F5F5F5F5F5F5F5F5F5F5F5F5F5F5F5E2E2E2E2E2E2E2E2E2E2E2E2E2E2E2E2E2E2E2E2E2E2
310
E2E2E2E2E2E2E2E2E2E2E2E2E2E2E2E2E2E2E2E2E2E2E2E2E2E2E2E2E2E2E2E2E2E2E2E2E2E2E2E2E2E2E2E2E2E2E2E2E2E2E2E2E2E2E2E2E2E2E2E2E2E2E2E2E2F5F5F5F5F5F5F5F5F5F5F5F5F5F5F5F5F5F5F5F5F5F5F5F5F5F5F5F5F5F5F5F5F5F5F5F5F5F5F5F5E2E2F5E2E2F5E2F5F5F5F5F5F5F5F5F5F5F5F5F5F5F5
310
F5F5F5F5F5F5F5F5F5F5F5F5F5F5F5F5F5F5F5F5F5F5F5F5F5F5F5F5F5F5F5F5E2BEF5F5F5F5F5F5F5F5F5F5F5F5F5F5F5F5F5F5F5F5F5F5F5F5F5F5F5F5F5F5F5F5F5F5F5F5F5E2E2E2E2E2F5F5F5F5F5F5F5F5F5F5F5F5F5F5F5F5F5F5F5F5F5F5F5F5F5F5F5F5F5F5F5F5F5F5F5F5F5F5F5F5E2BEF5F5F5F5F5F5F5F5F5
310
F5F5F5F5F5F5F5F5F5F5F5F5F5F5F5F5F5F5F5F5F5F5F5F5F5F5F5F5F5F5F5E2E2F5E2E2F5E2F5F5F5F5F5F5F5F5F5F5F5F5F5F5F5F5F5F5F5F5F5F5F5F5F5F5F5F5F5F5F5F5F5F5F5F5F5F5F5F5F5F5F5F5F5F5F5E2F5F5F5F5F5F5F5F5F5F5F5F5F5F5F5F5F5F5F5F5F5F5F5F5F5F5F5F5F5F5F5F5F5F5F5F5F5F5E2E2E2
310
E2E2F5F5F5F5F5F5F5F5F5F5F5F5F5F5F5F5F5F5F5F5F5F5F5F5F5F5F5F5F5F5F5F5F5F5F5F5F5F5F5F5E2F5F5F5F5F5F5F5F5F5F5F5F5F5F5F5F5F5F5F5F5F5F5F5F5F5F5F5F5F5F5F5F5F5F5F5F5F5F5F5F5F5E2E2F5E2E2F5E2F5F5F5F5F5F5F5F5F5F5F5F5F5F5F5F5F5F5F5F5F5F5F5F5F5F5F5F5F5F5F5F5F5F5F5F5
310
F5F5F5F5F5F5F5F5F5F5F5F5F5F5F5F5F5F5F5F5F5F5F5F5F5F5F5F5F5F5F5F5F5F5F5F5F5F5F5F5F5F5F5F5F5F5F5F5F5F5E2E2E2E2E2F5F5F5F5F5F5F5F5F5F5F5F5F5F5F5F5F5F5F5F5F5F5F5F5F5F5F5F5F5F5F5F5F5F5F5F5F5F5F5F5F5F5F5F5F5F5F5F5F5F5F5F5F5F5F5F5F5F5F5F5F5F5F5F5F5F5F5F5F5F5F5F5
310
F5F5F5F5F5F5F5F5F5F5E2E2F5E2E2F5E2F5F5F5F5F5F5F5F5F5F5F5F5F5F5F5F5F5F5F5F5F5F5F5F5F5F5F5F5F5F5F5F5F5F5F5F5F5F5F5F5F5F5F5F5F5F5F5F5F5F5F5F5F5F5F5F5F5F5F5F5F5F5F5F5F5F5F5F5F5F5F5F5F5F5F5F5F5F5F5F5F5F5F5F5F5F5E2E2E2E2E2F5F5F5F5F5F5F5F5F5F5F5F5F5F5F5F5F5F5F5
310
F5F5F5F5F5F5F5F5F5F5F5F5F5F5F5F5F5F5F5F5F5F5F5F5F5F5F5F5F5F5F5F5F5F5F5F5F5F5F5F5F5F5F5F5F5F5F5F5F5F5F5F5F5F5F5F5F5F5F5F5F5F5F5E2E2F5E2E2F5E2F5F5F5F5F5F5F5F5F5F5F5F5F5F5F5F5F5F5F5F5F5F5F5F5F5F5F5F5F5F5F5F5F5F5F5F5F5F5F5F5F5F5F5F5F5F5F5F5F5F5F5F5F5F5F5F5F5
310
F5F5F5F5F5F5F5F5F5F5F5F5F5F5F5F5F5F5F5F5F5F5F5F5F5F5F5F5F5F5F5F5F5F5F5F5F5F5F5F5F5F5F5F5F5F5F5F5F5F5F5F5F5F5F5F5F5F5F5F5F5F5F5F5F5F5F5F5F5F5F5F5F5F5F5F5F5F5F5F5F5F5F5F5F5F5F5F5F5F5F5F5F5F5F5F5F5F5F5F5F5F5F5F5F5F5F5F5F5F5F5F5F5F5F5F5E2E2F5E2E2F5E2F5F5F5F5
310
F5F5F5F5F5F5F5F5F5F5F5F5F5F5F5F5F5F5F5F5F5F5F5F5F5F5F5F5F5F5F5F5F5F5F5F5F5F5F5F5F5F5F5F5F5F5F5F5F5F5F5F5F5F5F5F5F5F5F5F5F5F5F5F5F5F5F5F5F5F5F5F5F5F5F5F5F5F5F5F5F5F5F5F5F5F5F5F5F5F5F5F5F5F5F5F5F5F5F5F5F5F5F5F5F5F5F5F5F5F5F5F5F5F5F5F5F5F5F5F5F5F5F5F5F5F5F5
310
F5F5F5F5F5F5F5F5F5F5F5F5F5F5F5F5F5F5F5F5F5F5F5F5F5F5F5F5F5F5F5F5F5F5F5F5F5F5F5F5F5F5E2E2F5E2E2F5E2F5F5F5F5F5F5F5F5F5F5F5F5F5F5F5F5F5F5F5F5F5F5F5F5F5F5F5F5F5F5F5F5F5F5F5F5F5F5F5F5F5F5F5F5F5F5F5F5F5F5F5F5F5F5F5F5F5F5F5F5F5F5F5F5F5F5F5F5F5F5F5F5F5F5F5F5F5F5
310
F5F5F5F5F5F5F5F5F5F5F5F5F5F5F5F5F5F5F5F5F5F5F5F5F5F5F5F5F5F5F5F5F5F5F5F5F5F5F5F5F5F5F5F5F5F5F5F5F5F5F5F5F5F5F5F5F5F5F5F5F5F5F5F5F5F5F5F5F5F5F5F5F5F5F5F5F5F5F5F5F5F5F5F5F5F5F5F5F5F5F5F5F5F5F5E2E2F5E2E2F5E2F5F5F5F5F5F5F5F5F5F5F5F5F5F5F5F5F5F5F5F5F5F5F5F5F5
310
F5F5F5F5F5F5F5F5F5F5F5F5F5F5F5F5F5F5F5F5F5F5F5F5F5F5F5F5F5F5F5F5F5F5F5F5F5F5F5F5F5F5F5F5F5F5F5F5F5F5F5F5F5F5F5F5F5F5F5F5F5F5F5F5F5F5F5F5F5F5F5F5F5F5F5F5F5F5F5F5F5F5F5F5F5F5F5F5F5F5F5F5F5F5F5F5F5F5F5F5F5F5F5F5F5F5F5F5F5F5F5F5F5F5F5F5F5F5F5F5F5F5F5F5F5F5F5
310
F5F5F5F5F5F5F5F5F5F5F5F5F5F5F5F5F5F5F5F5F5E2E2F5E2E2F5E2F5F5F5F5F5F5F5F5F5F5F5F5F5F5F5F5F5F5F5F5F5F5F5F5F5F5F5F5F5F5F5F5F5F5F5F5F5F5F5F5F5F5F5F5F5F5F5F5F5F5F5F5F5F5F5F5F5F5F5F5F5F5F5F5F5F5F5F5F5F5F5F5F5F5F5F5F5F5F5F5F5F5F5F5F5F5F5F5F5F5F5F5F5F5F5F5F5F5F5
310
F5F5F5F5F5F5F5F5F5F5F5F5F5F5F5F5F5F5F5F5F5F5F5F5F5F5F5F5F5F5F5F5F5F5F5F5F5F5F5F5F5F5F5F5F5F5F5F5F5F5F5F5F5F5F5F5F5F5F5F5F5F5F5F5F5F5F5F5F5F5F5F5F5F5E2E2F5E2E2F5E2F5F5F5F5F5F5F5F5F5F5F5F5F5F5F5F5F5F5F5F5F5F5F5F5F5F5F5F5F5F5F5F5F5F5F5F5F5F5F5F5F5F5F5F5F5F5
310
F5F5F5F5F5F5F5F5F5F5F5F5F5F5F5F5F5F5F5F5F5F5F5F5F5F5F5F5F5F5F5F5F5F5F5F5F5F5F5F5F5F5F5F5F5F5F5F5F5F5F5F5F5F5F5F5F5F5F5F5F5F5F5F5F5F5F5F5F5F5F5F5F5F5F5F5F5F5F5F5F5F5F5F5F5F5F5F5F5F5F5F5F5F5F5F5F5F5F5F5F5F5F5F5F5F5F5F5F5F5F5F5F5F5F5F5F5F5F5F5F5F5F5F5F5F5F5
310
E2E2F5E2E2F5E2F5F5F5F5F5F5F5F5F5F5F5F5F5F5F5F5F5F5F5F5F5F5F5F5F5F5F5F5F5F5F5F5F5F5F5F5F5F5F5F5F5F5F5F5F5F5F5F5F5F5F5F5F5F5F5F5F5F5F5F5F5F5F5F5F5F5F5F5F5F5F5F5F5F5F5F5F5F5F5F5F5F5F5F5F5F5F5F5F5F5F5F5F5F5F5F5F5F5F5F5F5F5F5F5F5F5F5F5F5F5F5F5F5F5F5F5F5F5F5F5
310
F5F5F5F5F5F5F5F5F5F5F5F5F5F5F5F5F5F5F5F5F5F5F5F5F5F5F5F5F5F5F5F5F5F5F5F5F5F5F5F5F5F5F5F5F5F5F5F5F5F5F5F5F5E2E2F5E2E2F5E2F5F5F5F5F5F5F5F5F5F5F5F5F5F5F5F5F5F5F5F5F5F5F5F5F5F5F5F5F5F5F5F5F5F5F5F5F5F5F5F5F5F5F5F5F5F5F5F5F5F5F5F5F5F5F5F5F5F5F5F5F5F5F5F5F5F5F5
310
F5F5F5F5F5F5F5F5F5F5F5F5F5F5F5F5F5F5F5F5F5F5F5F5F5F5F5F5F5F5F5F5F5F5F5F5F5F5F5F5F5F5F5F5F5F5F5F5F5F5F5F5F5F5F5F5F5F5F5F5F5F5F5F5F5F5F5F5F5F5F5F5F5F5F5F5F5F5F5F5F5F5F5F5F5F5F5F5F5F5F5F5F5F5F5F5F5F5F5F5F5F5F5F5F5F5E2F5F5E2E2F5E2F5F5F5F5F5F5F5F5F5F5F5F5F5F5
310
F5F5F5F5F5F5F5F5F5F5F5F5F5F5F5F5F5F5F5F5F5F5F5F5F5F5F5F5F5F5F5F5F5F5F5F5F5F5F5F5F5F5F5F5F5F5F5F5F5F5F5F5F5F5F5F5F5F5F5F5F5F5F5F5F5F5F5F5F5F5F5F5F5F5F5F5F5F5F5F5F5F5F5F5F5F5F5F5F5F5F5F5F5F5F5F5F5F5F5F5F5F5F5F5F5F5F5F5F5F5F5F5F5F5F5F5F5F5F5F5F5F5F5F5F5F5F5
310
F5F5F5F5F5F5F5F5F5F5F5F5F5F5F5F5F5F5F5F5F5F5F5F5F5F5F5F5F5F5F5F5E2F5F5E2E2F5E2F5F5F5F5F5F5F5F5F5F5F5F5F5F5F5F5F5F5F5F5F5F5F5F5F5F5F5F5F5F5F5F5F5F5F5F5F5F5F5F5F5F5F5F5F5F5F5F5F5F5F5F5F5F5F5F5F5F5F5F5F5F5F5F5F5F5F5F5F5F5F5F5F5F5F5F5F5F5F5F5F5F5F5F5F5F5F5F5
310
F5F5F5F5F5F5F5F5F5F5F5F5F5F5F5F5F5F5F5F5F5F5F5F5F5F5F5F5F5F5F5F5F5F5F5F5F5F5F5F5F5F5F5F5F5F5F5F5F5F5F5F5F5F5F5F5F5F5F5F5F5F5F5F5F5F5F5F5F5F5F5F5F5F5F5F5F5F5F5F5F5F5F5F5F5E2F5F5E2E2F5E2F5F5F5F5F5F5F5F5F5F5F5F5F5F5F5F5F5F5F5F5F5F5F5F5F5F5F5F5F5F5F5F5F5F5F5
310
F5F5F5F5F5F5F5F5F5F5F5F5F5F5F5F5F5F5F5F5F5F5F5F5F5F5F5F5F5F5F5F5F5F5F5F5F5F5F5F5F5F5F5F5F5F5F5F5F5F5F5F5F5F5F5F5F5F5F5F5F5F5F5F5F5F5F5F5F5F5F5F5F5F5F5F5F5F5F5F5F5F5F5F5F5F5F5F5F5F5F5F5F5F5F5F5F5F5F5F5F5F5F5F5F5F5F5F5F5F5F5F5F5F5F5F5F5F5F5F5F5F5F5F5F5F5F5
310
F5F5F5F5F5F5F5F5F5F5F5E2F5F5E2E2F5E2F5F5F5F5F5F5F5F5F5F5F5F5F5F5F5F5F5F5F5F5F5F5F5F5F5F5F5F5F5F5F5F5F5F5F5F5F5F5F5F5F5F5F5F5F5F5F5F5F5F5F5F5F5F5F5F5F5F5F5F5F5F5F5F5F5F5F5F5F5F5F5F5F5F5F5F5F5F5F5F5F5F5F5F5F5F5F5F5F5F5F5F5F5F5F5F5F5F5F5F5F5F5F5F5F5F5F5F5F5
310
F5F5F5F5F5F5F5F5F5F5F5F5F5F5F5F5F5F5F5F5F5F5F5F5F5F5F5F5F5F5F5F5F5F5F5F5F5F5F5F5F5F5F5F5F5F5F5F5F5F5F5F5F5F5F5F5F5F5F5F5F5F5F5F5E2F5F5E2E2F5E2F5F5F5F5F5F5F5F5F5F5F5F5F5F5F5F5F5F5F5F5F5F5F5F5F5F5F5F5F5F5F5F5F5F5F5F5F5F5F5F5F5F5F5F5F5F5F5F5F5F5F5F5F5F5F5F5
310
F5F5F5F5F5F5F5F5F5F5F5F5F5F5F5F5F5F5F5F5F5F5F5F5F5F5F5F5F5F5F5F5F5F5F5F5F5F5F5F5F5F5F5F5F5F5F5F5F5F5F5F5F5F5F5F5F5F5F5F5F5F5F5F5F5F5F5F5F5F5F5F5F5F5F5F5F5F5F5F5F5F5F5F5F5F5F5F5F5F5F5F5F5F5F5F5F5F5F5F5F5F5F5F5F5F5F5F5F5F5F5F5F5F5F5F5F5E2F5F5E2E2F5E2F5F5F5
310
F5F5F5F5F5F5F5F5F5F5F5F5F5F5F5F5F5F5F5F5F5F5F5F5F5F5F5F5F5F5F5F5F5F5F5F5F5F5F5F5F5F5F5F5F5F5F5F5F5F5F5F5F5F5F5F5F5F5F5F5F5F5F5F5F5F5F5F5F5F5F5F5F5F5F5F5F5F5F5F5F5F5F5F5F5F5F5F5F5F5F5F5F5F5F5F5F5F5F5F5F5F5F5F5F5F5F5F5F5F5F5F5F5F5F5F5F5F5F5F5F5F5F5F5F5F5F5
310
F5F5F5F5F5F5F5F5F5F5F5F5F5F5F5F5F5F5F5F5F5F5F5F5F5F5F5F5F5F5F5F5F5F5F5F5F5F5F5F5F5F5F5E2F5F5E2E2F5E2F5F5F5F5F5F5F5F5F5F5F5F5F5F5F5F5F5F5F5F5F5F5F5F5F5F5F5F5F5F5F5F5F5F5F5F5F5F5F5F5F5F5F5F5F5F5F5F5F5F5F5F5F5F5F5F5F5F5F5F5F5F5F5F5F5F5F5F5F5F5F5F5F5F5F5F5F5
310
F5F5F5F5F5F5F5F5F5F5F5F5F5F5F5F5F5F5F5F5F5F5F5F5F5F5F5F5F5F5F5F5F5F5F5F5F5F5F5F5F5F5F5F5F5F5F5F5F5F5F5F5F5F5F5F5F5F5F5F5F5F5F5F5F5F5F5F5F5F5F5F5F5F5F5F5F5F5F5F5F5F5F5F5F5F5F5F5F5F5F5F5F5F5F5F5E2F5F5E2E2F5E2F5F5F5F5F5F5F5F5F5F5F5F5F5F5F5F5F5F5F5F5F5F5F5F5
310
F5F5F5F5F5F5F5F5F5F5F5F5F5F5F5F5F5F5F5F5F5F5F5F5F5F5F5F5F5F5F5F5F5F5F5F5F5F5F5F5F5F5F5F5F5F5F5F5F5F5F5F5F5F5F5F5F5F5F5F5F5F5F5F5F5F5F5F5F5F5F5F5F5F5F5F5F5F5F5F5F5F5F5F5F5F5F5F5F5F5F5F5F5F5F5F5F5F5F5F5F5F5F5F5F5F5F5F5F5F5F5F5F5F5F5F5F5F5F5F5F5F5F5F5F5F5F5
310
F5F5F5F5F5F5F5F5F5F5F5F5F5F5F5F5F5F5F5F5F5F5E2F5F5E2E2F5E2F5F5F5F5F5F5F5F5F5F5F5F5F5F5F5F5F5F5F5F5F5F5F5F5F5F5F5F5F5F5F5F5F5F5F5F5F5F5F5F5F5F5F5F5F5F5F5F5F5F5F5F5F5F5F5F5F5F5F5F5F5F5F5F5F5F5F5F5F5F5F5F5F5F5F5F5F5F5F5F5F5F5F5F5F5F5F5F5F5F5F5F5F5F5F5F5F5F5
310
F5F5F5F5F5F5F5F5F5F5F5F5F5F5F5F5F5F5F5F5F5F5F5F5F5F5F5F5F5F5F5F5F5F5F5F5F5F5F5F5F5F5F5F5F5F5F5F5F5F5F5F5F5F5F5F5F5F5F5F5F5F5F5F5F5F5F5F5F5F5F5F5F5F5F5E2E2F5E2E2F5E2F5F5F5F5F5F5F5F5F5F5F5F5F5F5F5F5F5F5F5F5F5F5F5F5F5F5F5F5F5F5F5F5F5F5F5F5F5F5F5F5F5F5F5F5F5
310
F5F5F5F5F5F5F5F5F5F5F5F5F5F5F5F5F5F5F5F5F5F5F5F5F5F5F5F5F5F5F5F5F5F5F5F5F5F5F5F5F5F5F5F5F5F5F5F5F5F5F5F5F5F5F5F5F5F5F5F5F5F5F5F5F5F5F5F5F5F5F5F5F5F5F5F5F5F5F5F5F5F5F5F5F5F5F5F5F5F5F5F5F5F5F5F5F5F5F5F5F5F5F5F5F5F5F5F5F5F5F5F5F5F5F5F5F5F5F5F5F5F5F5F5F5F5F5
310
F5E2E2F5E2E2F5E2F5F5F5F5F5F5F5F5F5F5F5F5F5F5F5F5F5F5F5F5F5F5F5F5F5F5F5F5F5F5F5F5F5F5F5F5F5F5F5F5F5F5F5F5F5F5F5F5F5F5F5F5F5F5F5F5F5F5F5F5F5F5F5F5F5F5F5F5F5F5F5F5F5F5F5F5F5F5F5F5F5F5F5F5F5F5F5F5F5F5F5F5F5F5F5F5F5F5F5F5F5F5F5F5F5F5F5F5F5F5F5F5F5F5F5F5F5F5F5
310
F5F5F5F5F5F5F5F5F5F5F5F5F5F5F5F5F5F5F5F5F5F5F5F5F5F5F5F5F5F5F5F5F5F5F5F5F5F5F5F5F5F5F5F5F5F5F5F5F5F5F5F5F5F5E2E2F5E2E2F5E2F5F5F5F5F5F5F5F5F5F5F5F5F5F5F5F5F5F5F5F5F5F5F5F5F5F5F5F5F5F5F5F5F5F5F5F5F5F5F5F5F5F5F5F5F5F5F5F5F5F5F5F5F5F5F5F5F5F5F5F5F5F5F5F5F5F5
310
F5F5F5F5F5F5F5F5F5F5F5F5F5F5F5F5F5F5F5F5F5F5F5F5F5F5F5F5F5F5F5F5F5F5F5F5F5F5F5F5F5F5F5F5F5F5F5F5F5F5F5F5F5F5F5F5F5F5F5F5F5F5F5F5F5F5F5F5F5F5F5F5F5F5F5F5F5F5F5F5F5F5F5F5F5F5F5F5F5F5F5F5F5F5F5F5F5F5F5F5F5F5F5F5F5F5F5E2E2F5E2E2F5E2F5F5F5F5F5F5F5F5F5F5F5F5F5
310
F5F5F5F5F5F5F5F5F5F5F5F5F5F5F5F5F5F5F5F5F5F5F5F5F5F5F5F5F5F5F5F5F5F5F5F5F5F5F5F5F5F5F5F5F5F5F5F5F5F5F5F5F5F5F5F5F5F5F5F5F5F5F5F5F5F5F5F5F5F5F5F5F5F5F5F5F5F5F5F5F5F5F5F5F5F5F5F5F5F5F5F5F5F5F5F5F5F5F5F5F5F5F5F5F5F5F5F5F5F5F5F5F5F5F5F5F5F5F5F5F5F5F5F5F5F5F5
310
F5F5F5F5F5F5F5F5F5F5F5F5F5F5F5F5F5F5F5F5F5F5F5F5F5F5F5F5F5F5F5F5F5E2E2F5E2E2F5E2F5F5F5F5F5F5F5F5F5F5F5F5F5F5F5F5F5F5F5F5F5F5F5F5F5F5F5F5F5F5F5F5F5F5F5F5F5F5F5F5F5F5F5F5F5F5F5F5F5F5F5F5F5F5F5F5F5F5F5F5F5F5F5F5F5F5F5F5F5F5F5F5F5F5F5F5F5F5F5F5F5F5F5F5F5F5F5
310
F5F5F5F5F5F5F5F5F5F5F5F5F5F5F5F5F5F5F5F5F5F5F5F5F5F5F5F5F5F5F5F5F5F5F5F5F5F5F5F5F5F5F5F5F5F5F5F5F5F5F5F5F5F5F5F5F5F5F5F5F5F5F5F5F5F5F5F5F5F5F5F5F5F5F5F5F5F5F5F5F5F5F5F5F5F5E2E2F5E2E2F5E2F5F5F5F5F5F5F5F5F5F5F5F5F5F5F5F5F5F5F5F5F5F5F5F5F5F5F5F5F5F5F5F5F5F5
310
F5F5F5F5F5F5F5F5F5F5F5F5F5F5F5F5F5F5F5F5F5F5F5F5F5F5F5F5F5F5F5F5F5F5F5F5F5F5F5F5F5F5F5F5F5F5F5F5F5F5F5F5F5F5F5F5F5F5F5F5F5F5F5F5F5F5F5F5F5F5F5F5F5F5F5F5F5F5F5F5F5F5F5F5F5F5F5F5F5F5F5F5F5F5F5F5F5F5F5F5F5F5F5F5F5F5F5F5F5F5F5F5F5F5F5F5F5F5F5F5F5F5F5F5F5F5F5
310
F5F5F5F5F5F5F5F5F5F5F5F5E2E2F5E2E2F5E2E2E2E2E2E2E2E2E2E2E2E2E2E2E2E2E2E2E2E2E2E2E2E2E2E2E2E2E2E2E2E2E2E2E2E2E2E2E2E2E2E2E2E2E2E2E2E2E2E2E2E2E2E2E2E2E2E2E2E2E2E2E2E2E2E2E2E2E2E2E2E2E2E2E2E2E2E2E2E2E2E2E2E2E2E2E2E2E2E2E2E2E2E2E2E2E2E2E2E2E2E2E2E2E2E2E2E2E2
310
E2E2E2E2E2E2E2E2E2E2E2E2E2E2E2E2E2E2E2E2E2E2E2E2E2E2E2E2E2E2E2E2E2E2E2E2E2E2E2E2E2E2E2E2E2E2E2E2E2E2E2E2E2E2E2E2E2E2E2E2E2E2E2E2E2E2E2F5E2E2F5F5F5F5F5F5F5F5F5F5F5F5F5F5F5F5F5F5F5F5F5F5F5F5F5F5F5F5F5F5F5F5F5F5F5F5F5F5F5F5F5F5F5F5F5F5F5F5F5F5F5F5F5F5F5F5F5
310
F5F5F5F5F5F5F5F5F5F5F5F5F5F5F5F5F5F5F5F5F5F5F5F5F5F5F5F5F5F5F5F5F5F5F5F5F5F5F5F5F5F5F5F5F5F5F5F5F5F5F5F5F5F5F5F5F5F5F5F5F5F5F5F5F5F5F5F5F5F5F5F5F5F5F5F5F5F5F5F5F5F5F5F5F5F5F5F5F5F5F5F5F5F5F5F5F5F5F5F5F5F5F5F5F5F5F5F5F5F5F5F5F5F5F5F5F5F5F5F5F5E2E2E2E2E2E2
310
E2E2E2E2E2E2E2E2E2E2E2E2E2E2E2E2E2E2E2E2E2E2E2E2E2E2E2E2E2E2E2E2E2E2E2E2E2E2E2E2E2E2E2E2E2E2E2E2E2E2E2E2E2E2E2E2E2E2E2E2E2E2E2E2E2E2E2E2E2E2E2E2E2E2E2E2E2E2E2E2E2E2E2E2E2E2E2E2E2E2E2E2E2E2E2E2E2E2E2E2E2E2E2E2E2E2E2E2E2E2E2E2E2E2E2E2E2E2E2E2E2E2E2E2E2E2E2
310
E2E2E2E2E2E2E2E2E2E2E2E2E2E2E2E2E2E2E2E2E2E2E2E2E2E2E2E2E2E2E2E2E2E2E2E2E2E2E2E2E2E2E2E2E2E2E2E2
  0
XRECORD
  5
3847
102
{ACAD_REACTORS
330
3846
102
}
330
3846
100
AcDbXrecord
280
     1
102
MATERIAL
148
0.0
149
0.0
149
0.0
 93
        0
 94
      127
282
     0
 72
     1
 77
     1
171
     1
175
     1
179
     1
273
     0
  0
XRECORD
  5
3845
102
{ACAD_REACTORS
330
3844
102
}
330
3844
100
AcDbXrecord
280
     1
102
MATERIAL
148
0.0
149
0.0
149
0.0
 93
        0
 94
      127
282
     0
 72
     1
 77
     1
171
     1
175
     1
179
     1
273
     0
  0
XRECORD
  5
3849
102
{ACAD_REACTORS
330
3848
102
}
330
3848
100
AcDbXrecord
280
     1
102
MATERIAL
148
0.0
149
0.0
149
0.0
 93
        0
 94
      127
282
     0
 72
     1
 77
     1
171
     1
175
     1
179
     1
273
     0
  0
CELLSTYLEMAP
  5
3843
102
{ACAD_REACTORS
330
2D85
102
}
330
2D85
100
AcDbCellStyleMap
 90
        3
300
CELLSTYLE
  1
TABLEFORMAT_BEGIN
 90
        5
170
     1
 91
        0
 92
    32768
 62
   257
 93
        1
300
CONTENTFORMAT
  1
CONTENTFORMAT_BEGIN
 90
        0
 91
        0
 92
      512
 93
        0
300

 40
0.0
140
1.0
 94
        5
 62
     0
340
11
144
0.25
309
CONTENTFORMAT_END
171
     0
 94
        6
 95
        1
302
GRIDFORMAT
  1
GRIDFORMAT_BEGIN
 90
        0
 91
        1
 62
     0
 92
       -2
340
0
 93
        0
 40
0.045
309
GRIDFORMAT_END
 95
        2
302
GRIDFORMAT
  1
GRIDFORMAT_BEGIN
 90
        0
 91
        1
 62
     0
 92
       -2
340
0
 93
        0
 40
0.045
309
GRIDFORMAT_END
 95
        4
302
GRIDFORMAT
  1
GRIDFORMAT_BEGIN
 90
        0
 91
        1
 62
     0
 92
       -2
340
0
 93
        0
 40
0.045
309
GRIDFORMAT_END
 95
        8
302
GRIDFORMAT
  1
GRIDFORMAT_BEGIN
 90
        0
 91
        1
 62
     0
 92
       -2
340
0
 93
        0
 40
0.045
309
GRIDFORMAT_END
 95
       16
302
GRIDFORMAT
  1
GRIDFORMAT_BEGIN
 90
        0
 91
        1
 62
     0
 92
       -2
340
0
 93
        0
 40
0.045
309
GRIDFORMAT_END
 95
       32
302
GRIDFORMAT
  1
GRIDFORMAT_BEGIN
 90
        0
 91
        1
 62
     0
 92
       -2
340
0
 93
        0
 40
0.045
309
GRIDFORMAT_END
309
TABLEFORMAT_END
  1
CELLSTYLE_BEGIN
 90
        1
 91
        1
300
_TITLE
309
CELLSTYLE_END
300
CELLSTYLE
  1
TABLEFORMAT_BEGIN
 90
        5
170
     1
 91
        0
 92
        0
 62
   257
 93
        1
300
CONTENTFORMAT
  1
CONTENTFORMAT_BEGIN
 90
        0
 91
        0
 92
      512
 93
        0
300

 40
0.0
140
1.0
 94
        5
 62
     0
340
11
144
0.18
309
CONTENTFORMAT_END
171
     0
 94
        6
 95
        1
302
GRIDFORMAT
  1
GRIDFORMAT_BEGIN
 90
        0
 91
        1
 62
     0
 92
       -2
340
0
 93
        0
 40
0.045
309
GRIDFORMAT_END
 95
        2
302
GRIDFORMAT
  1
GRIDFORMAT_BEGIN
 90
        0
 91
        1
 62
     0
 92
       -2
340
0
 93
        0
 40
0.045
309
GRIDFORMAT_END
 95
        4
302
GRIDFORMAT
  1
GRIDFORMAT_BEGIN
 90
        0
 91
        1
 62
     0
 92
       -2
340
0
 93
        0
 40
0.045
309
GRIDFORMAT_END
 95
        8
302
GRIDFORMAT
  1
GRIDFORMAT_BEGIN
 90
        0
 91
        1
 62
     0
 92
       -2
340
0
 93
        0
 40
0.045
309
GRIDFORMAT_END
 95
       16
302
GRIDFORMAT
  1
GRIDFORMAT_BEGIN
 90
        0
 91
        1
 62
     0
 92
       -2
340
0
 93
        0
 40
0.045
309
GRIDFORMAT_END
 95
       32
302
GRIDFORMAT
  1
GRIDFORMAT_BEGIN
 90
        0
 91
        1
 62
     0
 92
       -2
340
0
 93
        0
 40
0.045
309
GRIDFORMAT_END
309
TABLEFORMAT_END
  1
CELLSTYLE_BEGIN
 90
        2
 91
        1
300
_HEADER
309
CELLSTYLE_END
300
CELLSTYLE
  1
TABLEFORMAT_BEGIN
 90
        5
170
     1
 91
        0
 92
        0
 62
   257
 93
        1
300
CONTENTFORMAT
  1
CONTENTFORMAT_BEGIN
 90
        0
 91
        0
 92
      512
 93
        0
300

 40
0.0
140
1.0
 94
        2
 62
     0
340
11
144
0.18
309
CONTENTFORMAT_END
171
     0
 94
        6
 95
        1
302
GRIDFORMAT
  1
GRIDFORMAT_BEGIN
 90
        0
 91
        1
 62
     0
 92
       -2
340
0
 93
        0
 40
0.045
309
GRIDFORMAT_END
 95
        2
302
GRIDFORMAT
  1
GRIDFORMAT_BEGIN
 90
        0
 91
        1
 62
     0
 92
       -2
340
0
 93
        0
 40
0.045
309
GRIDFORMAT_END
 95
        4
302
GRIDFORMAT
  1
GRIDFORMAT_BEGIN
 90
        0
 91
        1
 62
     0
 92
       -2
340
0
 93
        0
 40
0.045
309
GRIDFORMAT_END
 95
        8
302
GRIDFORMAT
  1
GRIDFORMAT_BEGIN
 90
        0
 91
        1
 62
     0
 92
       -2
340
0
 93
        0
 40
0.045
309
GRIDFORMAT_END
 95
       16
302
GRIDFORMAT
  1
GRIDFORMAT_BEGIN
 90
        0
 91
        1
 62
     0
 92
       -2
340
0
 93
        0
 40
0.045
309
GRIDFORMAT_END
 95
       32
302
GRIDFORMAT
  1
GRIDFORMAT_BEGIN
 90
        0
 91
        1
 62
     0
 92
       -2
340
0
 93
        0
 40
0.045
309
GRIDFORMAT_END
309
TABLEFORMAT_END
  1
CELLSTYLE_BEGIN
 90
        3
 91
        2
300
_DATA
309
CELLSTYLE_END
  0
XRECORD
  5
384A
102
{ACAD_REACTORS
330
2D85
102
}
330
2D85
100
AcDbXrecord
280
     1
102
ACAD_ROUNDTRIP_PRE2007_TABLESTYLE
 90
      512
 91
        0
  1

 92
      512
 93
        0
  2

 94
      512
 95
        0
  3

  0
XRECORD
  5
49B
102
{ACAD_REACTORS
330
49A
102
}
330
49A
100
AcDbXrecord
280
     1
102
RTVSPropertyOp0
 70
     1
102
RTVSPropertyOp1
 70
     1
102
RTVSPropertyOp2
 70
     1
102
RTVSPropertyOp3
 70
     1
102
RTVSPropertyOp4
 70
     1
102
RTVSPropertyOp5
 70
     1
102
RTVSPropertyOp6
 70
     1
102
RTVSPropertyOp7
 70
     1
102
RTVSPropertyOp8
 70
     1
102
RTVSPropertyOp9
 70
     1
102
RTVSPropertyOp10
 70
     1
102
RTVSPropertyOp11
 70
     1
102
RTVSPropertyOp12
 70
     1
102
RTVSPropertyOp13
 70
     1
102
RTVSPropertyOp14
 70
     1
102
RTVSPropertyOp15
 70
     1
102
RTVSPropertyOp16
 70
     1
102
RTVSPropertyOp17
 70
     1
102
RTVSPropertyOp18
 70
     1
102
RTVSPropertyOp19
 70
     1
102
RTVSPropertyOp20
 70
     1
102
RTVSPropertyOp21
 70
     1
102
RTVSPropertyOp22
 70
     1
102
RTVSPropertyOp23
 70
     1
102
RTVSPropertyOp24
 70
     1
102
RTVSPropertyOp25
 70
     1
102
RTVSPropertyOp26
 70
     1
102
RTVSPropertyOp27
 70
     1
  0
XRECORD
  5
A4A
102
{ACAD_REACTORS
330
A49
102
}
330
A49
100
AcDbXrecord
280
     1
102
RTVSPropertyOp0
 70
     1
102
RTVSPropertyOp1
 70
     1
102
RTVSPropertyOp2
 70
     1
102
RTVSPropertyOp3
 70
     1
102
RTVSPropertyOp4
 70
     1
102
RTVSPropertyOp5
 70
     1
102
RTVSPropertyOp6
 70
     1
102
RTVSPropertyOp7
 70
     1
102
RTVSPropertyOp8
 70
     1
102
RTVSPropertyOp9
 70
     1
102
RTVSPropertyOp10
 70
     1
102
RTVSPropertyOp11
 70
     1
102
RTVSPropertyOp12
 70
     1
102
RTVSPropertyOp13
 70
     1
102
RTVSPropertyOp14
 70
     1
102
RTVSPropertyOp15
 70
     1
102
RTVSPropertyOp16
 70
     1
102
RTVSPropertyOp17
 70
     1
102
RTVSPropertyOp18
 70
     1
102
RTVSPropertyOp19
 70
     1
102
RTVSPropertyOp20
 70
     1
102
RTVSPropertyOp21
 70
     1
102
RTVSPropertyOp22
 70
     1
102
RTVSPropertyOp23
 70
     1
102
RTVSPropertyOp24
 70
     1
102
RTVSPropertyOp25
 70
     1
102
RTVSPropertyOp26
 70
     1
102
RTVSPropertyOp27
 70
     1
  0
XRECORD
  5
4A1
102
{ACAD_REACTORS
330
4A0
102
}
330
4A0
100
AcDbXrecord
280
     1
102
RTVSPropertyOp0
 70
     1
102
RTVSPropertyOp1
 70
     1
102
RTVSPropertyOp2
 70
     1
102
RTVSPropertyOp3
 70
     1
102
RTVSPropertyOp4
 70
     1
102
RTVSPropertyOp5
 70
     1
102
RTVSPropertyOp6
 70
     1
102
RTVSPropertyOp7
 70
     1
102
RTVSPropertyOp8
 70
     1
102
RTVSPropertyOp9
 70
     1
102
RTVSPropertyOp10
 70
     1
102
RTVSPropertyOp11
 70
     1
102
RTVSPropertyOp12
 70
     1
102
RTVSPropertyOp13
 70
     1
102
RTVSPropertyOp14
 70
     1
102
RTVSPropertyOp15
 70
     1
102
RTVSPropertyOp16
 70
     1
102
RTVSPropertyOp17
 70
     1
102
RTVSPropertyOp18
 70
     1
102
RTVSPropertyOp19
 70
     1
102
RTVSPropertyOp20
 70
     1
102
RTVSPropertyOp21
 70
     1
102
RTVSPropertyOp22
 70
     1
102
RTVSPropertyOp23
 70
     1
102
RTVSPropertyOp24
 70
     1
102
RTVSPropertyOp25
 70
     1
102
RTVSPropertyOp26
 70
     1
102
RTVSPropertyOp27
 70
     1
  0
XRECORD
  5
4A9
102
{ACAD_REACTORS
330
4A8
102
}
330
4A8
100
AcDbXrecord
280
     1
102
RTVSPropertyOp0
 70
     1
102
RTVSPropertyOp1
 70
     1
102
RTVSPropertyOp2
 70
     1
102
RTVSPropertyOp3
 70
     1
102
RTVSPropertyOp4
 70
     1
102
RTVSPropertyOp5
 70
     1
102
RTVSPropertyOp6
 70
     1
102
RTVSPropertyOp7
 70
     1
102
RTVSPropertyOp8
 70
     1
102
RTVSPropertyOp9
 70
     1
102
RTVSPropertyOp10
 70
     1
102
RTVSPropertyOp11
 70
     1
102
RTVSPropertyOp12
 70
     1
102
RTVSPropertyOp13
 70
     1
102
RTVSPropertyOp14
 70
     1
102
RTVSPropertyOp15
 70
     1
102
RTVSPropertyOp16
 70
     1
102
RTVSPropertyOp17
 70
     1
102
RTVSPropertyOp18
 70
     1
102
RTVSPropertyOp19
 70
     1
102
RTVSPropertyOp20
 70
     1
102
RTVSPropertyOp21
 70
     1
102
RTVSPropertyOp22
 70
     1
102
RTVSPropertyOp23
 70
     1
102
RTVSPropertyOp24
 70
     1
102
RTVSPropertyOp25
 70
     1
102
RTVSPropertyOp26
 70
     1
102
RTVSPropertyOp27
 70
     1
  0
XRECORD
  5
4B1
102
{ACAD_REACTORS
330
4B0
102
}
330
4B0
100
AcDbXrecord
280
     1
102
RTVSPropertyOp0
 70
     1
102
RTVSPropertyOp1
 70
     1
102
RTVSPropertyOp2
 70
     1
102
RTVSPropertyOp3
 70
     1
102
RTVSPropertyOp4
 70
     1
102
RTVSPropertyOp5
 70
     1
102
RTVSPropertyOp6
 70
     1
102
RTVSPropertyOp7
 70
     1
102
RTVSPropertyOp8
 70
     1
102
RTVSPropertyOp9
 70
     1
102
RTVSPropertyOp10
 70
     1
102
RTVSPropertyOp11
 70
     1
102
RTVSPropertyOp12
 70
     1
102
RTVSPropertyOp13
 70
     1
102
RTVSPropertyOp14
 70
     1
102
RTVSPropertyOp15
 70
     1
102
RTVSPropertyOp16
 70
     1
102
RTVSPropertyOp17
 70
     1
102
RTVSPropertyOp18
 70
     1
102
RTVSPropertyOp19
 70
     1
102
RTVSPropertyOp20
 70
     1
102
RTVSPropertyOp21
 70
     1
102
RTVSPropertyOp22
 70
     1
102
RTVSPropertyOp23
 70
     1
102
RTVSPropertyOp24
 70
     1
102
RTVSPropertyOp25
 70
     1
102
RTVSPropertyOp26
 70
     1
102
RTVSPropertyOp27
 70
     1
  0
XRECORD
  5
4A7
102
{ACAD_REACTORS
330
4A6
102
}
330
4A6
100
AcDbXrecord
280
     1
102
RTVSPropertyOp0
 70
     1
102
RTVSPropertyOp1
 70
     1
102
RTVSPropertyOp2
 70
     1
102
RTVSPropertyOp3
 70
     1
102
RTVSPropertyOp4
 70
     1
102
RTVSPropertyOp5
 70
     1
102
RTVSPropertyOp6
 70
     1
102
RTVSPropertyOp7
 70
     1
102
RTVSPropertyOp8
 70
     1
102
RTVSPropertyOp9
 70
     1
102
RTVSPropertyOp10
 70
     1
102
RTVSPropertyOp11
 70
     1
102
RTVSPropertyOp12
 70
     1
102
RTVSPropertyOp13
 70
     1
102
RTVSPropertyOp14
 70
     1
102
RTVSPropertyOp15
 70
     1
102
RTVSPropertyOp16
 70
     1
102
RTVSPropertyOp17
 70
     1
102
RTVSPropertyOp18
 70
     1
102
RTVSPropertyOp19
 70
     1
102
RTVSPropertyOp20
 70
     1
102
RTVSPropertyOp21
 70
     1
102
RTVSPropertyOp22
 70
     1
102
RTVSPropertyOp23
 70
     1
102
RTVSPropertyOp24
 70
     1
102
RTVSPropertyOp25
 70
     1
102
RTVSPropertyOp26
 70
     1
102
RTVSPropertyOp27
 70
     1
  0
XRECORD
  5
4AF
102
{ACAD_REACTORS
330
4AE
102
}
330
4AE
100
AcDbXrecord
280
     1
102
RTVSPropertyOp0
 70
     1
102
RTVSPropertyOp1
 70
     1
102
RTVSPropertyOp2
 70
     1
102
RTVSPropertyOp3
 70
     1
102
RTVSPropertyOp4
 70
     1
102
RTVSPropertyOp5
 70
     1
102
RTVSPropertyOp6
 70
     1
102
RTVSPropertyOp7
 70
     1
102
RTVSPropertyOp8
 70
     1
102
RTVSPropertyOp9
 70
     1
102
RTVSPropertyOp10
 70
     1
102
RTVSPropertyOp11
 70
     1
102
RTVSPropertyOp12
 70
     1
102
RTVSPropertyOp13
 70
     1
102
RTVSPropertyOp14
 70
     1
102
RTVSPropertyOp15
 70
     1
102
RTVSPropertyOp16
 70
     1
102
RTVSPropertyOp17
 70
     1
102
RTVSPropertyOp18
 70
     1
102
RTVSPropertyOp19
 70
     1
102
RTVSPropertyOp20
 70
     1
102
RTVSPropertyOp21
 70
     1
102
RTVSPropertyOp22
 70
     1
102
RTVSPropertyOp23
 70
     1
102
RTVSPropertyOp24
 70
     1
102
RTVSPropertyOp25
 70
     1
102
RTVSPropertyOp26
 70
     1
102
RTVSPropertyOp27
 70
     1
  0
XRECORD
  5
493
102
{ACAD_REACTORS
330
492
102
}
330
492
100
AcDbXrecord
280
     1
102
RTVSPropertyOp0
 70
     1
102
RTVSPropertyOp1
 70
     1
102
RTVSPropertyOp2
 70
     1
102
RTVSPropertyOp3
 70
     1
102
RTVSPropertyOp4
 70
     1
102
RTVSPropertyOp5
 70
     1
102
RTVSPropertyOp6
 70
     1
102
RTVSPropertyOp7
 70
     1
102
RTVSPropertyOp8
 70
     1
102
RTVSPropertyOp9
 70
     1
102
RTVSPropertyOp10
 70
     1
102
RTVSPropertyOp11
 70
     1
102
RTVSPropertyOp12
 70
     1
102
RTVSPropertyOp13
 70
     1
102
RTVSPropertyOp14
 70
     1
102
RTVSPropertyOp15
 70
     1
102
RTVSPropertyOp16
 70
     1
102
RTVSPropertyOp17
 70
     1
102
RTVSPropertyOp18
 70
     1
102
RTVSPropertyOp19
 70
     1
102
RTVSPropertyOp20
 70
     1
102
RTVSPropertyOp21
 70
     1
102
RTVSPropertyOp22
 70
     1
102
RTVSPropertyOp23
 70
     1
102
RTVSPropertyOp24
 70
     1
102
RTVSPropertyOp25
 70
     1
102
RTVSPropertyOp26
 70
     1
102
RTVSPropertyOp27
 70
     1
  0
XRECORD
  5
495
102
{ACAD_REACTORS
330
494
102
}
330
494
100
AcDbXrecord
280
     1
102
RTVSPropertyOp0
 70
     1
102
RTVSPropertyOp1
 70
     1
102
RTVSPropertyOp2
 70
     1
102
RTVSPropertyOp3
 70
     1
102
RTVSPropertyOp4
 70
     1
102
RTVSPropertyOp5
 70
     1
102
RTVSPropertyOp6
 70
     1
102
RTVSPropertyOp7
 70
     1
102
RTVSPropertyOp8
 70
     1
102
RTVSPropertyOp9
 70
     1
102
RTVSPropertyOp10
 70
     1
102
RTVSPropertyOp11
 70
     1
102
RTVSPropertyOp12
 70
     1
102
RTVSPropertyOp13
 70
     1
102
RTVSPropertyOp14
 70
     1
102
RTVSPropertyOp15
 70
     1
102
RTVSPropertyOp16
 70
     1
102
RTVSPropertyOp17
 70
     1
102
RTVSPropertyOp18
 70
     1
102
RTVSPropertyOp19
 70
     1
102
RTVSPropertyOp20
 70
     1
102
RTVSPropertyOp21
 70
     1
102
RTVSPropertyOp22
 70
     1
102
RTVSPropertyOp23
 70
     1
102
RTVSPropertyOp24
 70
     1
102
RTVSPropertyOp25
 70
     1
102
RTVSPropertyOp26
 70
     1
102
RTVSPropertyOp27
 70
     1
  0
XRECORD
  5
497
102
{ACAD_REACTORS
330
496
102
}
330
496
100
AcDbXrecord
280
     1
102
RTVSPropertyOp0
 70
     1
102
RTVSPropertyOp1
 70
     1
102
RTVSPropertyOp2
 70
     1
102
RTVSPropertyOp3
 70
     1
102
RTVSPropertyOp4
 70
     1
102
RTVSPropertyOp5
 70
     1
102
RTVSPropertyOp6
 70
     1
102
RTVSPropertyOp7
 70
     1
102
RTVSPropertyOp8
 70
     1
102
RTVSPropertyOp9
 70
     1
102
RTVSPropertyOp10
 70
     1
102
RTVSPropertyOp11
 70
     1
102
RTVSPropertyOp12
 70
     1
102
RTVSPropertyOp13
 70
     1
102
RTVSPropertyOp14
 70
     1
102
RTVSPropertyOp15
 70
     1
102
RTVSPropertyOp16
 70
     1
102
RTVSPropertyOp17
 70
     1
102
RTVSPropertyOp18
 70
     1
102
RTVSPropertyOp19
 70
     1
102
RTVSPropertyOp20
 70
     1
102
RTVSPropertyOp21
 70
     1
102
RTVSPropertyOp22
 70
     1
102
RTVSPropertyOp23
 70
     1
102
RTVSPropertyOp24
 70
     1
102
RTVSPropertyOp25
 70
     1
102
RTVSPropertyOp26
 70
     1
102
RTVSPropertyOp27
 70
     1
  0
XRECORD
  5
499
102
{ACAD_REACTORS
330
498
102
}
330
498
100
AcDbXrecord
280
     1
102
RTVSPropertyOp0
 70
     1
102
RTVSPropertyOp1
 70
     1
102
RTVSPropertyOp2
 70
     1
102
RTVSPropertyOp3
 70
     1
102
RTVSPropertyOp4
 70
     1
102
RTVSPropertyOp5
 70
     1
102
RTVSPropertyOp6
 70
     1
102
RTVSPropertyOp7
 70
     1
102
RTVSPropertyOp8
 70
     1
102
RTVSPropertyOp9
 70
     1
102
RTVSPropertyOp10
 70
     1
102
RTVSPropertyOp11
 70
     1
102
RTVSPropertyOp12
 70
     1
102
RTVSPropertyOp13
 70
     1
102
RTVSPropertyOp14
 70
     1
102
RTVSPropertyOp15
 70
     1
102
RTVSPropertyOp16
 70
     1
102
RTVSPropertyOp17
 70
     1
102
RTVSPropertyOp18
 70
     1
102
RTVSPropertyOp19
 70
     1
102
RTVSPropertyOp20
 70
     1
102
RTVSPropertyOp21
 70
     1
102
RTVSPropertyOp22
 70
     1
102
RTVSPropertyOp23
 70
     1
102
RTVSPropertyOp24
 70
     1
102
RTVSPropertyOp25
 70
     1
102
RTVSPropertyOp26
 70
     1
102
RTVSPropertyOp27
 70
     1
  0
XRECORD
  5
4AD
102
{ACAD_REACTORS
330
4AC
102
}
330
4AC
100
AcDbXrecord
280
     1
102
RTVSPropertyOp0
 70
     1
102
RTVSPropertyOp1
 70
     1
102
RTVSPropertyOp2
 70
     1
102
RTVSPropertyOp3
 70
     1
102
RTVSPropertyOp4
 70
     1
102
RTVSPropertyOp5
 70
     1
102
RTVSPropertyOp6
 70
     1
102
RTVSPropertyOp7
 70
     1
102
RTVSPropertyOp8
 70
     1
102
RTVSPropertyOp9
 70
     1
102
RTVSPropertyOp10
 70
     1
102
RTVSPropertyOp11
 70
     1
102
RTVSPropertyOp12
 70
     1
102
RTVSPropertyOp13
 70
     1
102
RTVSPropertyOp14
 70
     1
102
RTVSPropertyOp15
 70
     1
102
RTVSPropertyOp16
 70
     1
102
RTVSPropertyOp17
 70
     1
102
RTVSPropertyOp18
 70
     1
102
RTVSPropertyOp19
 70
     1
102
RTVSPropertyOp20
 70
     1
102
RTVSPropertyOp21
 70
     1
102
RTVSPropertyOp22
 70
     1
102
RTVSPropertyOp23
 70
     1
102
RTVSPropertyOp24
 70
     1
102
RTVSPropertyOp25
 70
     1
102
RTVSPropertyOp26
 70
     1
102
RTVSPropertyOp27
 70
     1
  0
XRECORD
  5
A4E
102
{ACAD_REACTORS
330
A4D
102
}
330
A4D
100
AcDbXrecord
280
     1
102
RTVSPropertyOp0
 70
     1
102
RTVSPropertyOp1
 70
     1
102
RTVSPropertyOp2
 70
     1
102
RTVSPropertyOp3
 70
     1
102
RTVSPropertyOp4
 70
     1
102
RTVSPropertyOp5
 70
     1
102
RTVSPropertyOp6
 70
     1
102
RTVSPropertyOp7
 70
     1
102
RTVSPropertyOp8
 70
     1
102
RTVSPropertyOp9
 70
     1
102
RTVSPropertyOp10
 70
     1
102
RTVSPropertyOp11
 70
     1
102
RTVSPropertyOp12
 70
     1
102
RTVSPropertyOp13
 70
     1
102
RTVSPropertyOp14
 70
     1
102
RTVSPropertyOp15
 70
     1
102
RTVSPropertyOp16
 70
     1
102
RTVSPropertyOp17
 70
     1
102
RTVSPropertyOp18
 70
     1
102
RTVSPropertyOp19
 70
     1
102
RTVSPropertyOp20
 70
     1
102
RTVSPropertyOp21
 70
     1
102
RTVSPropertyOp22
 70
     1
102
RTVSPropertyOp23
 70
     1
102
RTVSPropertyOp24
 70
     1
102
RTVSPropertyOp25
 70
     1
102
RTVSPropertyOp26
 70
     1
102
RTVSPropertyOp27
 70
     1
  0
XRECORD
  5
4AB
102
{ACAD_REACTORS
330
4AA
102
}
330
4AA
100
AcDbXrecord
280
     1
102
RTVSPropertyOp0
 70
     1
102
RTVSPropertyOp1
 70
     1
102
RTVSPropertyOp2
 70
     1
102
RTVSPropertyOp3
 70
     1
102
RTVSPropertyOp4
 70
     1
102
RTVSPropertyOp5
 70
     1
102
RTVSPropertyOp6
 70
     1
102
RTVSPropertyOp7
 70
     1
102
RTVSPropertyOp8
 70
     1
102
RTVSPropertyOp9
 70
     1
102
RTVSPropertyOp10
 70
     1
102
RTVSPropertyOp11
 70
     1
102
RTVSPropertyOp12
 70
     1
102
RTVSPropertyOp13
 70
     1
102
RTVSPropertyOp14
 70
     1
102
RTVSPropertyOp15
 70
     1
102
RTVSPropertyOp16
 70
     1
102
RTVSPropertyOp17
 70
     1
102
RTVSPropertyOp18
 70
     1
102
RTVSPropertyOp19
 70
     1
102
RTVSPropertyOp20
 70
     1
102
RTVSPropertyOp21
 70
     1
102
RTVSPropertyOp22
 70
     1
102
RTVSPropertyOp23
 70
     1
102
RTVSPropertyOp24
 70
     1
102
RTVSPropertyOp25
 70
     1
102
RTVSPropertyOp26
 70
     1
102
RTVSPropertyOp27
 70
     1
  0
ENDSEC
  0
EOF
